Два дня, одна ночь / Deux jours, une nuit (Жан-Пьер Дарденн / Jean-Pierre Dardenne, Люк Дарденн / Luc Dardenne) [2014, Бельгия, Франция, Италия, драма, HDRip-AVC] MVO + Sub (rus, eng)


 

[Цитировать]

Два дня, одна ночь
Deux jours, une nuit


Страна: Бельгия, Франция, Италия
Жанр: драма
Год выпуска: 2014
Продолжительность: 01:35:08
Перевод: Профессиональный (многоголосый закадровый) [Лицензия]
Cубтитры: русские, английские
Оригинальная аудиодорожка: нет
Режиссер:
Жан-Пьер Дарденн / Jean-Pierre Dardenne, Люк Дарденн / Luc Dardenne
В ролях:
Марион Котийяр, Фабрицио Ронджоне, Катрин Сале, Батисте Сорнен, Пили Груан, Саймон Кодри, Лара Персейн, Ален Элуа, Мириам Акеддиу, Фабьен Шаша
Описание:
Судьба Сандры зависит от решения нескольких человек, вынужденных выбирать между ней и деньгами. Пытаясь склонить людей на свою сторону, она ищет в их сердцах то, что они, кажется, давно потеряли.


Автор рипа: Stalker oK
Сэмпл: multi-up
Качество видео: HDRip-AVC [BDRip 1080p]
Формат видео: MKV
Видео кодек: AVC
Аудио кодек: AAC
Видео: 1034 Кбит/сек, 808*436 (1,853), в 23,976 кадр/сек, AVC
Аудио: Russian, 64 Кбит/сек, 48,0 КГц / 24,0 КГц, 2 канала(ов), AAC (HE-AAC / LC)

MediaInfo

Общее
Уникальный идентификатор : 230421453172979503041219870552315034885 (0xAD598EC21E37F7B9BC134EA845B27D05)
Полное имя : M:\Rips4\Dva.dnja.odna.noch\Dva.dnja.odna.noch'.2014.HDRip-AVC.MVO.745Mb...stalkerok.new-team.mkv
Формат : Matroska
Версия формата : Version 4 / Version 2
Размер файла : 748 Мбайт
Продолжительность : 1 ч. 35 м.
Общий поток : 1100 Кбит/сек
Название фильма : Deux jours, une nuit, 2014 (New-Team) (Rip by Stalker oK)
Дата кодирования : UTC 2016-02-03 19:08:56
Программа кодирования : mkvmerge v8.6.1 ('Flying') 64bit
Библиотека кодирования : libebml v1.3.3 + libmatroska v1.4.4
Видео
Идентификатор : 1
Формат : AVC
Формат/Информация : Advanced Video Codec
Профиль формата : High@L4.1
Параметр CABAC формата : Да
Параметр ReFrames формата : 12 кадров
Идентификатор кодека : V_MPEG4/ISO/AVC
Продолжительность : 1 ч. 35 м.
Битрейт : 1034 Кбит/сек
Ширина : 808 пикселей
Высота : 436 пикселей
Соотношение сторон : 1,85:1
Режим частоты кадров : Постоянный
Частота кадров : 23,976 (24000/1001) кадра/сек
Цветовое пространство : YUV
Субдискретизация насыщенности : 4:2:0
Битовая глубина : 8 бит
Тип развёртки : Прогрессивная
Бит/(Пиксели*Кадры) : 0.122
Размер потока : 704 Мбайт (94%)
Библиотека кодирования : x264 core 142 r2431 ac76440
Настройки программы : cabac=1 / ref=12 / deblock=1:-2:-2 / analyse=0x3:0x133 / me=umh / subme=11 / psy=1 / psy_rd=1.00:0.10 / mixed_ref=1 / me_range=48 / chroma_me=1 / trellis=2 / 8x8dct=1 / cqm=0 / deadzone=21,11 / fast_pskip=0 / chroma_qp_offset=-3 / threads=12 / lookahead_threads=3 / sliced_threads=0 / nr=0 / decimate=0 / interlaced=0 / bluray_compat=0 / constrained_intra=0 / bframes=16 / b_pyramid=2 / b_adapt=2 / b_bias=0 / direct=3 / weightb=1 / open_gop=0 / weightp=2 / keyint=240 / keyint_min=23 / scenecut=40 / intra_refresh=0 / rc_lookahead=60 / rc=2pass / mbtree=0 / bitrate=1034 / ratetol=1.0 / qcomp=0.70 / qpmin=0 / qpmax=69 / qpstep=4 / cplxblur=20.0 / qblur=0.5 / vbv_maxrate=20000 / vbv_bufsize=25000 / nal_hrd=none / filler=0 / ip_ratio=1.25 / pb_ratio=1.15 / aq=2:1.00
Default : Да
Forced : Нет
Аудио
Идентификатор : 2
Формат : AAC
Формат/Информация : Advanced Audio Codec
Профиль формата : HE-AAC / LC
Идентификатор кодека : A_AAC
Продолжительность : 1 ч. 35 м.
Битрейт : 63,8 Кбит/сек
Каналы : 2 канала
Расположение каналов : Front: L R
Частота : 48,0 КГц / 24,0 КГц
Частота кадров : 23,438 кадра/сек (1024 spf)
Метод сжатия : С потерями
Задержка видео : 31 мс.
Размер потока : 43,4 Мбайт (6%)
Язык : Russian
Default : Да
Forced : Нет
Текст #1
Идентификатор : 3
Формат : UTF-8
Идентификатор кодека : S_TEXT/UTF8
Идентификатор кодека/Информация : UTF-8 Plain Text
Продолжительность : 1 ч. 32 м.
Битрейт : 76 бит/сек
Count of elements : 935
Размер потока : 51,7 Кбайт (0%)
Заголовок : R5
Язык : Russian
Default : Нет
Forced : Нет
Текст #2
Идентификатор : 4
Формат : UTF-8
Идентификатор кодека : S_TEXT/UTF8
Идентификатор кодека/Информация : UTF-8 Plain Text
Продолжительность : 1 ч. 30 м.
Битрейт : 37 бит/сек
Count of elements : 923
Размер потока : 25,0 Кбайт (0%)
Язык : English
Default : Нет
Forced : Нет
Меню
00:00:00.000 : en:00:00:00.000
00:06:12.706 : en:00:06:12.706
00:17:49.360 : en:00:17:49.360
00:21:06.348 : en:00:21:06.348
00:28:06.894 : en:00:28:06.894
00:35:57.781 : en:00:35:57.781
00:42:43.519 : en:00:42:43.519
00:51:24.039 : en:00:51:24.039
01:14:19.955 : en:01:14:19.955
01:18:23.198 : en:01:18:23.198
01:22:12.845 : en:01:22:12.845
01:25:22.534 : en:01:25:22.534

Скриншоты




Показать сообщения:    

Текущее время: 03-Дек 18:42

Часовой пояс: UTC + 3


Вы не можете начинать темы
Вы не можете отвечать на сообщения
Вы не можете редактировать свои сообщения
Вы не можете удалять свои сообщения
Вы не можете голосовать в опросах
Вы не можете прикреплять файлы к сообщениям
Вы не можете скачивать файлы