Женщина Жиля / Жена Жиля / La femme de Gilles (Фредерик Фонтейн / Frédéric Fonteyne) [2004, Франция, Бельгия, Италия, Люксембург, Швейцария, драма, DVDRip] VO + Original Fre


Статистика раздачи [Обновить пиров]
Размер:  790 MB   |    Зарегистрирован:  9 месяцев 22 дня   |    Скачан:  0 раз

Полного источника не было: Никогда

 
   
 
 
 

[Цитировать]

Женщина Жиля / Жена Жиля / La femme de Gilles Страна: Франция , Бельгия , Италия , Люксембург , Швейцария
Жанр: драма
Год выпуска: 2004
Продолжительность: 01:43:37
Перевод: Одноголосый закадровый
Cубтитры: нет
Оригинальная аудиодорожка: французская
Режиссер: Фредерик Фонтейн / Frédéric Fonteyne
В ролях: Эммануэль Дево, Кловис Корнийяк, Лаура Смет, Колетт Эммануэль, Жиль Лягей,Алис Верлинден, Хлоя Верлинден, Йоанн Бланк, Филипп Жозетт, Бенжамин Рамон.
Описание: Элиза замужем за Жилем, которого любит без памяти. Он - её единственный мужчина, тот мужчина, чьего возвращения она ждет каждый день, тот, ради кого она делает работу по дому, воспитывает детей, тот, от кого она опять ждет ребенка. Когда Элиза понимает, что её Жиль любит другую, ей не остаётся ничего другого как молчать, страдать, надеяться и верить… до тех пор, пока это не закончится.

Доп. информация: Франкоязычный DVDRip позаимствован из раздачи Milva с

Качество видео: DVDRip
Формат видео: AVI
Видео: 576x304 (1.89:1), 25 fps, XviD Final 1.0.3 (build 37) ~794 kbps avg, 0.18 bit/pixel
Аудио 1: 48 kHz, MPEG Layer 3, 2 ch, ~128.00 kbps avg - Rus
Аудио 2: 48 kHz, MPEG Layer 3, 2 ch, ~128.00 kbps avg - Fre

MediaInfo

General
Complete name : D:\Public\La femme de Gilles (2004) DVDrip (Rus-Fre).avi
Format : AVI
Format/Info : Audio Video Interleave
File size : 790 MiB
Duration : 1h 43mn
Overall bit rate : 1 065 Kbps
Writing application : VirtualDubMod 1.5.10.2 (build 2542/release)
Writing library : VirtualDubMod build 2542/release
Video
ID : 0
Format : MPEG-4 Visual
Format profile : Advanced Simple@L5
Format settings, BVOP : 2
Format settings, QPel : No
Format settings, GMC : No warppoints
Format settings, Matrix : Default (H.263)
Codec ID : XVID
Codec ID/Hint : XviD
Duration : 1h 43mn
Bit rate : 795 Kbps
Width : 576 pixels
Height : 304 pixels
Display aspect ratio : 1.895
Frame rate : 25.000 fps
Color space : YUV
Chroma subsampling : 4:2:0
Bit depth : 8 bits
Scan type : Progressive
Compression mode : Lossy
Bits/(Pixel*Frame) : 0.182
Stream size : 589 MiB (75%)
Writing library : XviD 1.0.3 (UTC 2004-12-20)
Audio #1
ID : 1
Format : MPEG Audio
Format version : Version 1
Format profile : Layer 3
Codec ID : 55
Codec ID/Hint : MP3
Duration : 1h 43mn
Bit rate mode : Constant
Bit rate : 128 Kbps
Channel(s) : 2 channels
Sampling rate : 48.0 KHz
Compression mode : Lossy
Stream size : 94.9 MiB (12%)
Alignment : Aligned on interleaves
Interleave, duration : 40 ms (1.00 video frame)
Interleave, preload duration : 504 ms
Title : Rus
Writing library : LAME3.98r
Encoding settings : -m s -V 4 -q 2 -lowpass 17 -b 128
Audio #2
ID : 2
Format : MPEG Audio
Format version : Version 1
Format profile : Layer 3
Codec ID : 55
Codec ID/Hint : MP3
Duration : 1h 43mn
Bit rate mode : Constant
Bit rate : 128 Kbps
Channel(s) : 2 channels
Sampling rate : 48.0 KHz
Compression mode : Lossy
Stream size : 94.9 MiB (12%)
Alignment : Aligned on interleaves
Interleave, duration : 40 ms (1.00 video frame)
Interleave, preload duration : 504 ms
Title : Fre
Writing library : LAME3.98r
Encoding settings : -m s -V 4 -q 2 -lowpass 17 -b 128

Скриншот c названием фильма

Скриншоты

[teatrix.ru].t14600.torrent 
Торрент: Зарегистрирован [ 2016-02-09 12:50 ] · 73CB1E0A31F090F4714C411385AA5E67BDA30239

Скачать .torrent

Скачать

16 KB

Статус: проверено
Скачан: 0 раз
Размер: 790 MB
terms.php



Быстрый ответ

Имя:

      
Для отправки сообщений необходимо включить JavaScript
Показать сообщения:    

Текущее время: 03-Дек 05:28

Часовой пояс: UTC + 3


Вы можете начинать темы
Вы можете отвечать на сообщения
Вы не можете редактировать свои сообщения
Вы не можете удалять свои сообщения
Вы не можете голосовать в опросах
Вы не можете прикреплять файлы к сообщениям
Вы можете скачивать файлы