Северо-восток / Nordeste (Хуан Диего Соланас / Juan Diego Solanas) [2005, Аргентина, Франция, Испания, Бельгия, драма, DVDRip] MVO + Sub Eng + Original Spa


Статистика раздачи [Обновить пиров]
Размер:  1.78 GB   |    Зарегистрирован:  9 месяцев 28 дней   |    Скачан:  1 раз

Полного источника не было: 3 месяца 9 дней

 
   
 
 
 

[Цитировать]

Северо-восток / Nordeste
Страна: Аргентина, Франция, Испания, Бельгия
Жанр: драма
Год выпуска: 2005
Продолжительность: 01:42:38
Перевод: Профессиональный (многоголосый закадровый)
Cубтитры: английские
Оригинальная аудиодорожка: испанский

Режиссер: Хуан Диего Соланас / Juan Diego Solanas
В ролях: Кароль Буке, Аймара Ровера, Мерседес Сампьетро, Игнасио Хименес, Эмилио Барди, Хуан Пабло Доменеч, Хорхе Роман, Родриго Алехандро Орнос, Эстебан Луис Гонзалес, Марио Марсело Реиносо, Дэниэл Валенсуела, Марсела Санчез, Карлос Бермехо
Описание: В возрасте 43 лет, бросив в жертву всё для воплощения своих карьерных амбиций, Хелен решает не допустить того, чтобы жизнь опять проходила мимо. Желание стать матерью приводит ее из Парижа в самую дальнюю часть Аргентины в поисках ребенка для усыновления. Там она обнаруживает Нордесте — дикий регион, где поразительная красота природы жестко контрастирует с социальной несправедливостью, превалирующей там. Во время своих поисков Хелен сталкивается с обществом, где судьба терпит крах под давлением таких пороков, как коррупция, где сделка или компромисс становятся возможными. По мере того, как она знакомится с людьми и сближается с ними, Хелен должна разобраться со своими собственными долгами и личными душевными исканиями. Это более чем просто поиск, это своего рода обряд очищения.
Качество видео: DVDRip
Формат видео: AVI
Видео: 704x304 (2.32:1), 23.976 fps, XviD build 73 ~1828 kbps avg, 0.36 bit/pixel
Аудио: 48 kHz, AC3 Dolby Digital, 2/0 (L,R) ch, ~192 kbps - многоголосый
Аудио: 48 kHz, AC3 Dolby Digital, 3/2 (L,C,R,l,r) + LFE ch, ~448 kbps - оригинал (отдельным файлом)

MediaInfo

Общее
Полное имя : H:\Nordeste.2005.dvdrip_[1.46]_[teko]\Nordeste.2005.dvdrip_[1.46].avi
Формат : AVI
Формат/Информация : Audio Video Interleave
Размер файла : 1,46 Гбайт
Продолжительность : 1 ч. 42 м.
Общий поток : 2030 Кбит/сек
Программа кодирования : VirtualDubMod 1.5.10.3 | www.virtualdub-fr.org || (build 2550/release)
Библиотека кодирования : VirtualDubMod build 2550/release
Видео
Идентификатор : 0
Формат : MPEG-4 Visual
Профиль формата : Advanced Simple@L5
Параметр BVOP формата : 2
Параметр QPel формата : Нет
Параметр GMC формата : Без точки перехода
Параметр матрицы формата : Выборочная
Идентификатор кодека : XVID
Идентификатор кодека/Подсказка : XviD
Продолжительность : 1 ч. 42 м.
Битрейт : 1829 Кбит/сек
Ширина : 704 пикселя
Высота : 304 пикселя
Соотношение сторон : 2,35:1
Частота кадров : 23,976 кадра/сек
Цветовое пространство : YUV
Субдискретизация насыщенности : 4:2:0
Битовая глубина : 8 бит
Тип развёртки : Прогрессивная
Метод сжатия : С потерями
Бит/(Пиксели*Кадры) : 0.356
Размер потока : 1,31 Гбайт (90%)
Библиотека кодирования : XviD 73
Аудио
Идентификатор : 1
Формат : AC-3
Формат/Информация : Audio Coding 3
Расширение режима : CM (complete main)
Параметр Endianness формата : Big
Идентификатор кодека : 2000
Продолжительность : 1 ч. 42 м.
Вид битрейта : Постоянный
Битрейт : 192 Кбит/сек
Каналы : 2 канала
Расположение каналов : Front: L R
Частота : 48,0 КГц
Битовая глубина : 16 бит
Метод сжатия : С потерями
Размер потока : 141 Мбайт (9%)
Выравнивание : Разделение по промежуткам
Продолжительность промежутка : 42 мс. (1,00 видеокадр)
Время предзагрузки промежутка : 500 мс.
[teatrix.ru].t14602.torrent 
Торрент: Зарегистрирован [ 2016-02-09 12:50 ] · 30AE7D32822D014C4C77A1C9ED51083FE846AFB8

Скачать .torrent

Скачать

18 KB

Статус: проверено
Скачан: 1 раз
Размер: 1.78 GB
terms.php



Быстрый ответ

Имя:

      
Для отправки сообщений необходимо включить JavaScript
Показать сообщения:    

Текущее время: 09-Дек 12:46

Часовой пояс: UTC + 3


Вы можете начинать темы
Вы можете отвечать на сообщения
Вы не можете редактировать свои сообщения
Вы не можете удалять свои сообщения
Вы не можете голосовать в опросах
Вы не можете прикреплять файлы к сообщениям
Вы можете скачивать файлы