Съемки в Палермо / Palermo Shooting (Вим Вендерс / Wim Wenders) [2008, Германия, Франция, Италия, драма, DVDRip-AVC] MVO + Sub Rus + Original (Eng + Ger + Ita)


Статистика раздачи [Обновить пиров]
Размер:  2.57 GB   |    Зарегистрирован:  9 месяцев 22 дня   |    Скачан:  0 раз

Полного источника не было: Никогда

Личеров:  55  [  0 KB/s  ]   Подробная статистика пиров
 
   
 
 
 

[Цитировать]

Съемки в Палермо / Palermo Shooting
Страна: Германия, Франция, Италия
Жанр: драма
Год выпуска: 2008
Продолжительность: 01:43:33
Перевод: Профессиональный (многоголосый закадровый)
Cубтитры: русские
Оригинальная аудиодорожка: английский, немецкий, итальянский
Режиссер: Вим Вендерс / Wim Wenders
В ролях: Кампино, Джованна Меццоджорно, Деннис Хоппер, Инга Буш, Эксел Сичровски, Герхард Гутбертлет, Гарри Блен, Себастьян Бломберг, Яна Палласке, Оливия Асиду-Поку, Мелика Форутан, Анна Орсо, Милла Йовович
Описание: Финн — знаменитый фотограф. Его работы украшают лучшие галереи и обложки журналов по всему миру. Жизнь бьет ключом, он — настоящая звезда арт-сцены. Но в сердце живет трагическая пустота.
Однажды он приезжает в Палермо, где знакомится с прекрасной и загадочной художницей Флавией и встречает свою любовь. Но внезапно с ним начинает происходить нечто необъяснимое, оживают древние фрески, искусство сливается с реальностью. Финн словно погружается на самое дно ада…
Доп. информация:


Сэмпл: https://www.sendspace.com/file/mvea0j
Качество видео: DVDRip-AVC
Формат видео: MKV
Видео: AVC, 718x574@1022x574, 25fps, 2654kbps, 0.258 bit/pixel
Аудио 1: AC3, 48000Hz, 6ch, 448kbps - русский
Аудио 2: AC3, 48000Hz, 6ch, 448kbps - оригинальный
Формат субтитров: softsub (SRT)

MediaInfo

Общее
Уникальный идентификатор : 186214871730621439550703242222653899397 (0x8C17AE0476EAEB46B301DD769A8F8285)
Полное имя : Z:\Съемки в Палермо (Palermo Shooting).mkv
Формат : Matroska
Версия формата : Version 4 / Version 2
Размер файла : 2,57 Гбайт
Продолжительность : 1 ч. 43 м.
Общий поток : 3552 Кбит/сек
Дата кодирования : UTC 2016-02-02 17:16:10
Программа кодирования : mkvmerge v7.1.0 ('Good Love') 32bit built on Jul 27 2014 12:59:18
Библиотека кодирования : libebml v1.3.0 + libmatroska v1.4.1
Видео
Идентификатор : 1
Формат : AVC
Формат/Информация : Advanced Video Codec
Профиль формата : High@L4.1
Параметр CABAC формата : Да
Параметр ReFrames формата : 16 кадров
Идентификатор кодека : V_MPEG4/ISO/AVC
Продолжительность : 1 ч. 43 м.
Битрейт : 2654 Кбит/сек
Ширина : 718 пикселей
Высота : 574 пикселя
Соотношение сторон : 16:9
Режим частоты кадров : Постоянный
Частота кадров : 25,000 кадров/сек
Цветовое пространство : YUV
Субдискретизация насыщенности : 4:2:0
Битовая глубина : 8 бит
Тип развёртки : Прогрессивная
Бит/(Пиксели*Кадры) : 0.258
Размер потока : 1,92 Гбайт (75%)
Библиотека кодирования : x264 core 148 r2665 a01e339
Настройки программы : cabac=1 / ref=16 / deblock=1:-2:-2 / analyse=0x3:0x133 / me=umh / subme=10 / psy=1 / psy_rd=1.00:0.10 / mixed_ref=1 / me_range=24 / chroma_me=1 / trellis=2 / 8x8dct=1 / cqm=0 / deadzone=21,11 / fast_pskip=0 / chroma_qp_offset=-3 / threads=3 / lookahead_threads=1 / sliced_threads=0 / nr=0 / decimate=0 / interlaced=0 / bluray_compat=0 / constrained_intra=0 / bframes=13 / b_pyramid=2 / b_adapt=2 / b_bias=0 / direct=3 / weightb=1 / open_gop=0 / weightp=2 / keyint=240 / keyint_min=24 / scenecut=40 / intra_refresh=0 / rc_lookahead=40 / rc=crf / mbtree=0 / crf=18.0 / qcomp=0.75 / qpmin=0 / qpmax=69 / qpstep=4 / vbv_maxrate=50000 / vbv_bufsize=62500 / crf_max=0.0 / nal_hrd=none / filler=0 / ip_ratio=1.40 / pb_ratio=1.30 / aq=3:0.70
Язык : English
Default : Да
Forced : Нет
Цветовой диапазон : Limited
Основные цвета : BT.709
Характеристики трансфера : BT.709
Коэффициенты матрицы : BT.709
Аудио #1
Идентификатор : 2
Формат : AC-3
Формат/Информация : Audio Coding 3
Расширение режима : CM (complete main)
Параметр Endianness формата : Big
Идентификатор кодека : A_AC3
Продолжительность : 1 ч. 43 м.
Вид битрейта : Постоянный
Битрейт : 448 Кбит/сек
Каналы : 6 каналов
Расположение каналов : Front: L C R, Side: L R, LFE
Частота : 48,0 КГц
Частота кадров : 31,250 кадров/сек (1536 spf)
Метод сжатия : С потерями
Размер потока : 332 Мбайт (13%)
Язык : Russian
Default : Да
Forced : Нет
Аудио #2
Идентификатор : 3
Формат : AC-3
Формат/Информация : Audio Coding 3
Расширение режима : CM (complete main)
Параметр Endianness формата : Big
Идентификатор кодека : A_AC3
Продолжительность : 1 ч. 43 м.
Вид битрейта : Постоянный
Битрейт : 448 Кбит/сек
Каналы : 6 каналов
Расположение каналов : Front: L C R, Side: L R, LFE
Частота : 48,0 КГц
Частота кадров : 31,250 кадров/сек (1536 spf)
Метод сжатия : С потерями
Размер потока : 332 Мбайт (13%)
Язык : English
Default : Нет
Forced : Нет
Текст
Идентификатор : 4
Формат : UTF-8
Идентификатор кодека : S_TEXT/UTF8
Идентификатор кодека/Информация : UTF-8 Plain Text
Продолжительность : 1 ч. 38 м.
Битрейт : 47 бит/сек
Count of elements : 828
Размер потока : 33,9 Кбайт (0%)
Язык : Russian
Default : Нет
Forced : Нет
Меню
00:00:00.000 : :
00:06:01.120 : :
00:12:31.360 : :
00:19:00.920 : :
00:22:00.840 : :
00:27:29.920 : :
00:31:32.000 : :
00:35:59.400 : :
00:42:15.320 : :
00:49:28.600 : :
00:53:58.200 : :
00:56:29.280 : :
01:02:30.440 : :
01:06:59.520 : :
01:12:00.560 : :
01:19:31.400 : :
01:25:28.240 : :
01:37:30.960 : :

Скриншот c названием фильма

Скриншоты

x264 log

x264 [info]: frame I:996 Avg QP:15.89 size: 45407
x264 [info]: frame P:30033 Avg QP:17.18 size: 26183
x264 [info]: frame B:124320 Avg QP:19.67 size: 9892
x264 [info]: consecutive B-frames: 1.3% 1.1% 11.9% 3.8% 4.3% 67.9% 2.6% 1.1% 2.2% 0.5% 0.4% 2.3% 0.2% 0.3%

Сравнения

Source / Encode / ASP



[teatrix.ru].t14607.torrent 
Торрент: Зарегистрирован [ 2016-02-09 12:50 ] · 8398DF1C705B478BDEDCB52C99264F37ABCF3EF2

Скачать .torrent

Скачать

13 KB

Статус: проверено
Скачан: 0 раз
Размер: 2.57 GB
terms.php



Быстрый ответ

Имя:

      
Для отправки сообщений необходимо включить JavaScript
Показать сообщения:    

Текущее время: 03-Дек 05:28

Часовой пояс: UTC + 3


Вы можете начинать темы
Вы можете отвечать на сообщения
Вы не можете редактировать свои сообщения
Вы не можете удалять свои сообщения
Вы не можете голосовать в опросах
Вы не можете прикреплять файлы к сообщениям
Вы можете скачивать файлы