Взрыв / I Ekrixi / A Blast (Силлас Цумеркас / Syllas Tzoumerkas) [2014, Греция, Германия, Нидерланды, Франция, Италия, Босния-Герцеговина, триллер, драма, DVDRip] Original Gre + Sub Rus


Статистика раздачи [Обновить пиров]
Размер:  1.37 GB   |    Зарегистрирован:  9 месяцев 28 дней   |    Скачан:  2 раза

Полного источника не было: 2 месяца 7 дней

 
   
 
 
 

[Цитировать]

Взрыв / I Ekrixi / A Blast
Страна: Греция, Германия, Нидерланды, Франция, Италия, Босния-Герцеговина
Жанр: Триллер, драма
Год выпуска: 2014
Продолжительность: 01:19:44
Перевод: Субтитры
Cубтитры: русские creo140
Оригинальная аудиодорожка: греческий
Режиссер: Силлас Цумеркас / Syllas Tzoumerkas
В ролях: Аггелики Папоулья, Вассилис Доганис, Мария Феллини, Темис Базака, Георгос Бениарис, Макис Пападимитру
Описание: Действие картины “A Blast” (“Взрыв”) происходит в современной Греции, в центре сюжета – героиня, которая хочет изменить свою жизнь.
Мать троих детей решает покончить с повседневностью радикально – она покидает семью и уходит из дома.
Она оставляет не только детей и мужа, на её плечах лежала забота о парализованной матери и о сестре, страдающей душевным заболеванием.
“Фактически Мария – так зовут героиню – выходит на тропу войны, она вступает в бой против тех, кого до этого любила и кто был для нее и миром, и мирозданием.
В чем причина?
Это, как я думаю, все-таки влияние в том числе и внешних обстоятельств, с одной стороны, а с другой – она хочет вернуть себе самоуважение”, – объясняет режиссер-постановщик ленты Силлас Цумеркас.
Доп. информация: http://www.kinopoisk.ru/film/841868/
http://www.imdb.com/title/tt3813916/
Сэмпл: http://multi-up.com/1087329
Качество видео: DVDRip
Формат видео: AVI
Видео: Xvid 720x304 25fps 1994kbps
Аудио: Dolby AC3 48000Hz 6ch 448kbps
Формат субтитров: softsub (SRT)

Фрагмент субтитров

14
00:01:52,440 --> 00:01:53,793
Социология.
15
00:01:55,120 --> 00:01:57,475
Права Человека...
- Ох, не начинай опять!
16
00:01:57,640 --> 00:01:59,949
Повторяй за мной.
- Права Человека...
17
00:02:03,080 --> 00:02:04,877
Ты помнишь их?
- Да, я помню!
18
00:02:05,000 --> 00:02:06,558
Покончим с этим!
- Прекрати!
19
00:02:06,680 --> 00:02:08,557
У меня экзамен через месяц!
- Меня не волнует.
20
00:02:09,440 --> 00:02:10,509
Повторяй за мной!
21
00:02:10,640 --> 00:02:11,595
Первое.
22
00:02:11,720 --> 00:02:13,438
"Все люди рождаются равными."
23
00:02:13,600 --> 00:02:15,113
"Все люди рождаются равными."
- Браво!
24
00:02:15,720 --> 00:02:16,277
Второе.
25
00:02:16,760 --> 00:02:19,479
"Они одарены
разумом и совестью."
26
00:02:19,720 --> 00:02:21,597
Это не применимо в твоём случае!
27
00:02:21,800 --> 00:02:23,472
Одаренные разумом и совестью.
Это не применимо в твоём случае!
28
00:02:24,360 --> 00:02:26,271
"И это их прямая обязанность",
я так сказала!
29
00:02:26,720 --> 00:02:29,871
"Действовать в духе братства."
30
00:02:30,200 --> 00:02:31,918
"Действовать в духе...
Или как-то так!"
31
00:02:32,040 --> 00:02:36,158
"Каждый человек, Гого, мой ребёнок,
32
00:02:37,000 --> 00:02:39,230
"имеет право на жизнь..."
33
00:02:39,840 --> 00:02:42,354
...на свободу
и на личную неприкосновенность."
34
00:02:42,560 --> 00:02:44,073
"Каждый человек..."
- "Все!"
35
00:02:45,320 --> 00:02:46,753
"На свободу..."
36
00:02:47,440 --> 00:02:49,795
"...и на личную неприкосновенность."
37
00:02:52,120 --> 00:02:55,874
"Каждый человек имеет право
свободно передвигаться."
38
00:02:57,400 --> 00:03:01,109
"И выбирать место,
где он хочет жить".
39
00:03:05,400 --> 00:03:07,550
Все, кроме тебя.
Ты никуда не собираешься.
40
00:03:08,160 --> 00:03:09,593
Я хочу побывать везде.
41
00:03:09,760 --> 00:03:11,512
"Каждый человек имеет
право на счастье."
42
00:03:11,680 --> 00:03:13,033
Я тоже?
- Ты тоже!
43
00:03:13,200 --> 00:03:14,030
И право на жизнь!
44
00:03:14,200 --> 00:03:15,349
И право на деньги!
45
00:03:15,440 --> 00:03:16,475
И право плавать!

MediaInfo

Format : AVI
Format/Info : Audio Video Interleave
File size : 1.37 GiB
Duration : 1h 19mn
Overall bit rate : 2 452 Kbps
Writing application : VirtualDubMod 1.5.10.3 | www.virtualdub-fr.org || (build 2550/release)
Writing library : VirtualDubMod build 2550/release
Video
ID : 0
Format : MPEG-4 Visual
Format profile : Advanced Simple@L5
Format settings, BVOP : 1
Format settings, QPel : No
Format settings, GMC : No warppoints
Format settings, Matrix : Default (MPEG)
Codec ID : XVID
Codec ID/Hint : XviD
Duration : 1h 19mn
Bit rate : 1 994 Kbps
Width : 720 pixels
Height : 304 pixels
Display aspect ratio : 2.35:1
Frame rate : 25.000 fps
Color space : YUV
Chroma subsampling : 4:2:0
Bit depth : 8 bits
Scan type : Progressive
Compression mode : Lossy
Bits/(Pixel*Frame) : 0.364
Stream size : 1.11 GiB (81%)
Writing library : XviD 1.2.1 (UTC 2008-12-04)
Audio
ID : 1
Format : AC-3
Format/Info : Audio Coding 3
Mode extension : CM (complete main)
Format settings, Endianness : Big
Codec ID : 2000
Duration : 1h 19mn
Bit rate mode : Constant
Bit rate : 448 Kbps
Channel(s) : 6 channels
Channel positions : Front: L C R, Side: L R, LFE
Sampling rate : 48.0 KHz
Compression mode : Lossy
Stream size : 255 MiB (18%)
Alignment : Split accross interleaves
Interleave, duration : 40 ms (1.00 video frame)
Interleave, preload duration : 500 ms

Скриншот c названием фильма

[teatrix.ru].t14608.torrent 
Торрент: Зарегистрирован [ 2016-02-09 12:50 ] · C082AECDE16CF119410D29DD89CF917CEFB6A688

Скачать .torrent

Скачать

14 KB

Статус: проверено
Скачан: 2 раз
Размер: 1.37 GB
terms.php



Быстрый ответ

Имя:

      
Для отправки сообщений необходимо включить JavaScript
Показать сообщения:    

Текущее время: 09-Дек 10:45

Часовой пояс: UTC + 3


Вы можете начинать темы
Вы можете отвечать на сообщения
Вы не можете редактировать свои сообщения
Вы не можете удалять свои сообщения
Вы не можете голосовать в опросах
Вы не можете прикреплять файлы к сообщениям
Вы можете скачивать файлы