Кафе де Флор / Café de Flore (Жан-Марк Валли / Jean-Marc Vallée) [2011, Канада, Франция, драма, мелодрама, BDRip] MVO R5


 

[Цитировать]

Кафе де Флор / Café de Flore
«Il n'est pas facile de dire adieu à ceux qu'on aime; pour y parvenir, il faut parfois toute une vie - ou deux»
-Страна: Канада, Франция / Banque Postale Image 4, Canal+ [fr], Ciné, Coficup...
Жанр: драма, мелодрама
Год выпуска: 2011
Продолжительность: 02:00:45
Перевод: Профессиональный (многоголосый закадровый) лицензия R5
Cубтитры: нет
Режиссёр: Жан-Марк Валли / Jean-Marc Vallée
В ролях: Ванесса Паради, Кевин Парент, Элен Флоран, Эвелин Брошу, Марен Герье, Элис Дюбуа, Эвелин де ла Шенельер, Мишель Дюмон, Линда Смит, Жоанни Корбей-Пише.
Описание: Две жизненные истории, два времени и две любви, тесно переплетенные в этой картине. Первая — о матери-одиночке Жаклин и её сыне с синдромом Дауна, произошедшая в Париже 1969 года. Вторая — об успешном ди-джее в современном Монреале, который обретает новую любовь, обрекая на страдания старую…-Рейтинг
imdb.com: 7.40 (10 418)
kinopoisk.ru: 7.745 (7 932)
-Сэмпл: http://multi-up.com/1087279-Качество видео: BDRip [CAFE.DE.FLORE.2011.BDREMUX.HDCLUB]
Формат видео: AVI
Видео: XviD build 65, 720x304 (2.37:1), 23.976 fps, ~1529 kbps avg, 0.291 bit/pixel
Аудио: 48 kHz, AC3 Dolby Digital, 2/0 (L,R) ch, ~192 kbps avg (MVO)
-

MediaInfo

Общее
Полное имя : D:\Café.de.Flore.2011.MVO.BDRip.1,46Gb.XviD.AC3.avi
Формат : AVI
Формат/Информация : Audio Video Interleave
Размер файла : 1,46 Гбайт
Продолжительность : 2 ч. 0 м.
Общий поток : 1730 Кбит/сек
Название фильма : Cafe de Flore 2011.
Режиссёр : Jean-Marc Vallee
Дата записи : 29.08.2012
Программа кодирования : VirtualDubModRus 1.5.10.2 (build 2542/release)
Библиотека кодирования : VirtualDubMod build 2542/release
Правообладатель : Rutracker.org
Примечание : BDRip by MooN_WalkeR
Видео
Идентификатор : 0
Формат : MPEG-4 Visual
Профиль формата : Advanced Simple@L5
Параметр BVOP формата : 2
Параметр QPel формата : Нет
Параметр GMC формата : Без точки перехода
Параметр матрицы формата : Выборочная
Идентификатор кодека : XVID
Идентификатор кодека/Подсказка : XviD
Продолжительность : 2 ч. 0 м.
Битрейт : 1529 Кбит/сек
Ширина : 720 пикселей
Высота : 304 пикселя
Соотношение сторон : 2,35:1
Частота кадров : 23,976 кадра/сек
Цветовое пространство : YUV
Субдискретизация насыщенности : 4:2:0
Битовая глубина : 8 бит
Тип развёртки : Прогрессивная
Метод сжатия : С потерями
Бит/(Пиксели*Кадры) : 0.291
Размер потока : 1,29 Гбайт (88%)
Библиотека кодирования : XviD 65
Аудио
Идентификатор : 1
Формат : AC-3
Формат/Информация : Audio Coding 3
Расширение режима : CM (complete main)
Параметр Endianness формата : Big
Идентификатор кодека : 2000
Продолжительность : 2 ч. 0 м.
Вид битрейта : Постоянный
Битрейт : 192 Кбит/сек
Каналы : 2 канала
Расположение каналов : Front: L R
Частота : 48,0 КГц
Битовая глубина : 16 бит
Метод сжатия : С потерями
Размер потока : 166 Мбайт (11%)
Выравнивание : Разделение по промежуткам
Продолжительность промежутка : 42 мс. (1,00 видеокадр)
Время предзагрузки промежутка : 500 мс.
Заголовок : MVO



Показать сообщения:    

Текущее время: 09-Дек 01:02

Часовой пояс: UTC + 3


Вы не можете начинать темы
Вы не можете отвечать на сообщения
Вы не можете редактировать свои сообщения
Вы не можете удалять свои сообщения
Вы не можете голосовать в опросах
Вы не можете прикреплять файлы к сообщениям
Вы не можете скачивать файлы