Магия лунного света / Magic in the Moonlight (Вуди Аллен / Woody Allen) [2014, США, Великобритания, мелодрама, комедия, BDRip] Dub + Original Eng + Subs


 

[Цитировать]

Магия лунного света / Magic in the Moonlight- Страна: США, Великобритания / Dippermouth, Gravier Productions, Perdido Productions...
Жанр: мелодрама, комедия
Год выпуска: 2014
Продолжительность: 01:37:37
Перевод: Профессиональный (дублированный) лицензия BD
Cубтитры: русские (full) + английские (full+full SDH+full SDH-Colored) внешние
Оригинальная аудиодорожка: английский
Режиссёр: Вуди Аллен / Woody Allen
В ролях: Колин Фёрт, Эмма Стоун, Катрин МакКормак, Хамиш Линклэйтер, Марша Гей Харден, Джеки Уивер, Эрика Лирсен, Айлин Эткинс, Саймон МакБерни, Джереми Шамос.
Описание: 1928 год. Выдающийся иллюзионист по просьбе своего друга и коллеги приезжает на Лазурный Берег разоблачить молодую привлекательную шарлатанку, якобы умеющую вызывать духов умерших. Она очаровала богатого наследника и его мать-вдову, а это не устраивает других членов семьи.-Рейтинг
imdb.com: 6.60 (41 153)
kinopoisk.ru: 7.025 (31 472)
MPAA: - детям до 13 лет просмотр не желателен-Сэмпл: http://multi-up.com/1086920-Качество видео: BDRip [Blu-ray disc custom]
Формат видео: AVI
Видео: XviD build 66, 720x304 (2.37:1), 23.976 fps, ~2282 kbps avg, 0.435 bit/pixel
Аудио 1: 48 kHz, AC3 Dolby Digital, 3/2 (L,C,R,l,r) + LFE ch, ~448 kbps avg (RUS)
Аудио 2: 48 kHz, AC3 Dolby Digital, 3/2 (L,C,R,l,r) + LFE ch, ~448 kbps avg (ENG)
Формат субтитров: softsub (SRT)
-

MediaInfo

Общее
Полное имя : D:\Magic.in.the.Moonlight.2014.CAN-Transfer.DUAL.BDRip.2,18Gb.XviD.AC3\Magic.in.the.Moonlight.2014.CAN-Transfer.DUAL.BDRip.2,18Gb.XviD.AC3.avi
Формат : AVI
Формат/Информация : Audio Video Interleave
Профиль формата : OpenDML
Размер файла : 2,18 Гбайт
Продолжительность : 1 ч. 37 м.
Общий поток : 3195 Кбит/сек
Название фильма : Magic in the Moonlight 2014 [CAN-Transfer]
Режиссёр : Woody Allen
Дата записи : 22.02.2015
Программа кодирования : VirtualDubModRus 1.5.10.2 (build 2542/release)
Библиотека кодирования : VirtualDubMod build 2542/release
Примечание : BDRip by MooN_WalkeR
Видео
Идентификатор : 0
Формат : MPEG-4 Visual
Профиль формата : Advanced Simple@L5
Параметр BVOP формата : 1
Параметр QPel формата : Нет
Параметр GMC формата : Без точки перехода
Параметр матрицы формата : Выборочная
Идентификатор кодека : XVID
Идентификатор кодека/Подсказка : XviD
Продолжительность : 1 ч. 37 м.
Битрейт : 2282 Кбит/сек
Ширина : 720 пикселей
Высота : 304 пикселя
Соотношение сторон : 2,35:1
Частота кадров : 23,976 кадра/сек
Цветовое пространство : YUV
Субдискретизация насыщенности : 4:2:0
Битовая глубина : 8 бит
Тип развёртки : Прогрессивная
Метод сжатия : С потерями
Бит/(Пиксели*Кадры) : 0.435
Размер потока : 1,56 Гбайт (71%)
Библиотека кодирования : XviD 66
Аудио #1
Идентификатор : 1
Формат : AC-3
Формат/Информация : Audio Coding 3
Расширение режима : CM (complete main)
Параметр Endianness формата : Big
Идентификатор кодека : 2000
Продолжительность : 1 ч. 37 м.
Вид битрейта : Постоянный
Битрейт : 448 Кбит/сек
Каналы : 6 каналов
Расположение каналов : Front: L C R, Side: L R, LFE
Частота : 48,0 КГц
Битовая глубина : 16 бит
Метод сжатия : С потерями
Размер потока : 312 Мбайт (14%)
Выравнивание : Разделение по промежуткам
Продолжительность промежутка : 42 мс. (1,00 видеокадр)
Время предзагрузки промежутка : 500 мс.
Заголовок : RUS
Аудио #2
Идентификатор : 2
Формат : AC-3
Формат/Информация : Audio Coding 3
Расширение режима : CM (complete main)
Параметр Endianness формата : Big
Идентификатор кодека : 2000
Продолжительность : 1 ч. 37 м.
Вид битрейта : Постоянный
Битрейт : 448 Кбит/сек
Каналы : 6 каналов
Расположение каналов : Front: L C R, Side: L R, LFE
Частота : 48,0 КГц
Битовая глубина : 16 бит
Метод сжатия : С потерями
Размер потока : 313 Мбайт (14%)
Выравнивание : Разделение по промежуткам
Продолжительность промежутка : 42 мс. (1,00 видеокадр)
Время предзагрузки промежутка : 500 мс.
Заголовок : ENG



Показать сообщения:    

Текущее время: 04-Дек 06:57

Часовой пояс: UTC + 3


Вы не можете начинать темы
Вы не можете отвечать на сообщения
Вы не можете редактировать свои сообщения
Вы не можете удалять свои сообщения
Вы не можете голосовать в опросах
Вы не можете прикреплять файлы к сообщениям
Вы не можете скачивать файлы