Эне, бене, рес / Ole dole doff / Eeny Meeny Miny Moe / Who Saw Him Die? (Ян Труэль / Jan Troell) [1968, Швеция, Драма, VHSRip] VO + Sub Rus + Original Swe


Статистика раздачи [Обновить пиров]
Размер:  798 MB   |    Зарегистрирован:  10 месяцев 1 день   |    Скачан:  0 раз

Полного источника не было: Никогда

 
   
 
 
 

[Цитировать]

Эне, бене, рес / Ole dole doff / Eeny Meeny Miny Moe / Who Saw Him Die?
Страна: Швеция
Жанр: Драма
Год выпуска: 1968
Продолжительность: 01:46:48
Перевод: Одноголосый закадровый
Cубтитры: русские
Оригинальная аудиодорожка: шведский
Режиссер: Ян Труэль / Jan Troell
В ролях: Пер Оскарссон, Анн-Мари Гюлленспец, Бенгт Экерут, Пер Шёнстранд, Георг Одднер, Катти Эдфельдт
Описание: По мотивам романа Класа Энгстрёма. Для Мартенсона - школьного учителя - каждый день на работе - настоящая пытка. Он давно потерял контроль над своим классом и ученики специально выводят его из себя. Но он всё ещё отчаянно пытается заслужить уважение... посредством насилия.
Сэмпл: http://multi-up.com/1086878
Качество видео: VHSRip
Формат видео: AVI
Видео: 640x400 (1.60:1), 25 fps, XviD build 46 ~773 kbps avg, 0.12 bit/pixel
Аудио 1: 48 kHz, MPEG Layer 3, 2 ch, ~128.00 kbps avg(Русский)
Аудио 2: 48 kHz, MPEG Layer 3, 2 ch, ~128.00 kbps avg(Шведский)
Формат субтитров: softsub (SRT)
Доп. информация о субтитрах: Русские внешние (die_mondnacht)

MediaInfo

Общее
Полное имя : F:\С моей озвучкой\Эне, бене, рес\Ole dole doff.avi
Формат : AVI
Формат/Информация : Audio Video Interleave
Размер файла : 798 Мбайт
Продолжительность : 1 ч. 46 м.
Общий поток : 1045 Кбит/сек
Программа кодирования : VirtualDubModRus 1.5.10.2 (build 2542/release)
Библиотека кодирования : VirtualDubMod build 2542/release
Видео
Идентификатор : 0
Формат : MPEG-4 Visual
Профиль формата : Simple@L3
Параметр BVOP формата : Нет
Параметр QPel формата : Нет
Параметр GMC формата : Без точки перехода
Параметр матрицы формата : Default (H.263)
Идентификатор кодека : XVID
Идентификатор кодека/Подсказка : XviD
Продолжительность : 1 ч. 46 м.
Битрейт : 775 Кбит/сек
Ширина : 640 пикселей
Высота : 400 пикселей
Соотношение сторон : 16:10
Частота кадров : 25,000 кадров/сек
Цветовое пространство : YUV
Субдискретизация насыщенности : 4:2:0
Битовая глубина : 8 бит
Тип развёртки : Прогрессивная
Метод сжатия : С потерями
Бит/(Пиксели*Кадры) : 0.121
Размер потока : 592 Мбайт (74%)
Библиотека кодирования : XviD 1.1.2 (UTC 2006-11-01)
Аудио #1
Идентификатор : 1
Формат : MPEG Audio
Версия формата : Version 1
Профиль формата : Layer 3
Режим : Joint stereo
Расширение режима : MS Stereo
Идентификатор кодека : 55
Идентификатор кодека/Подсказка : MP3
Продолжительность : 1 ч. 46 м.
Вид битрейта : Постоянный
Битрейт : 128 Кбит/сек
Каналы : 2 канала
Частота : 48,0 КГц
Метод сжатия : С потерями
Размер потока : 97,8 Мбайт (12%)
Выравнивание : Соединение по промежуткам
Продолжительность промежутка : 40 мс. (1,00 видеокадр)
Время предзагрузки промежутка : 504 мс.
Библиотека кодирования : LAME3.96
Аудио #2
Идентификатор : 2
Формат : MPEG Audio
Версия формата : Version 1
Профиль формата : Layer 3
Режим : Joint stereo
Расширение режима : MS Stereo
Идентификатор кодека : 55
Идентификатор кодека/Подсказка : MP3
Продолжительность : 1 ч. 46 м.
Вид битрейта : Постоянный
Битрейт : 128 Кбит/сек
Каналы : 2 канала
Частота : 48,0 КГц
Метод сжатия : С потерями
Размер потока : 97,8 Мбайт (12%)
Выравнивание : Разделение по промежуткам
Продолжительность промежутка : 40 мс. (1,00 видеокадр)
Время предзагрузки промежутка : 500 мс.

Скриншоты

[teatrix.ru].t14611.torrent 
Торрент: Зарегистрирован [ 2016-02-09 12:50 ] · 4F75813DCA8C8038A5D48E178C487C56C27D42FC

Скачать .torrent

Скачать

16 KB

Статус: проверено
Скачан: 0 раз
Размер: 798 MB
terms.php



Быстрый ответ

Имя:

      
Для отправки сообщений необходимо включить JavaScript
Показать сообщения:    

Текущее время: 11-Дек 05:22

Часовой пояс: UTC + 3


Вы можете начинать темы
Вы можете отвечать на сообщения
Вы не можете редактировать свои сообщения
Вы не можете удалять свои сообщения
Вы не можете голосовать в опросах
Вы не можете прикреплять файлы к сообщениям
Вы можете скачивать файлы