Левиафан (Андрей Звягинцев) [2014, Россия, драма, BDRip]


 

[Цитировать]

Левиафан- Год выхода: 2014
Выпущено: Россия / Нон-стоп Продакшн
Жанр: драма
Продолжительность: 02:18:07
Перевод: Не требуется |Лицензия|
Субтитры: нет-Режиссёр:
Андрей Звягинцев-В ролях:
Алексей Серебряков (Николай), Елена Лядова (Лиля), Владимир Вдовиченков (Дмитрий), Роман Мадянов (мэр), Анна Уколова (Анжела), Алексей Розин (Паша), Сергей Походаев (Ромка), Платон Каменев (Витя), Сергей Бачурский (Степаныч), Валерий Гришко (архиерей), Дмитрий Быковский-Ромашов (начальник полиции)-Описание:
Автослесарь Николай Сергеев живет со своей второй женой Лилией и сыном от первого брака в маленьком северном городке на берегу моря. Нечистый на руку мэр города Шевелят пытается изъять его дом и землю для собственных нужд. После двух проигранных судов Николай обращается за помощью к своему старому другу Дмитрию, успешному столичному адвокату. Но приезд московского гостя лишь усложняет и без того непростую жизнь Николая.-Релиз групп КиноПоиск| Сэмпл |-Качество: BDRip [Blu-ray Disc | GER Transfer]
Формат: AVI
Видео: 720x304 (2.37:1), 24.000 fps, XviD build 67 ~1305 kbps avg, 0.25 bit/pixel
Аудио: 48 kHz, AC3 Dolby Digital, 2/0 (L,R) ch, ~192.00 kbps avg
-

Скриншоты

MediaInfo

Общее
Полное имя                               : D:\Leviafan_2014_BDRip_by_Dalemake.avi
Формат                                   : AVI
Формат/Информация                        : Audio Video Interleave
Размер файла                             : 1,45 Гбайт
Продолжительность                        : 2 ч. 18 м.
Общий поток                              : 1507 Кбит/сек
Программа кодирования                    : VirtualDubMod 1.5.10.3 | www.virtualdub-fr.org || (build 2550/release)
Библиотека кодирования                   : VirtualDubMod build 2550/release
Видео
Идентификатор                            : 0
Формат                                   : MPEG-4 Visual
Профиль формата                          : Advanced Simple@L5
Параметр BVOP формата                    : 1
Параметр QPel формата                    : Нет
Параметр GMC формата                     : Без точки перехода
Параметр матрицы формата                 : Выборочная
Идентификатор кодека                     : XVID
Идентификатор кодека/Подсказка           : XviD
Продолжительность                        : 2 ч. 18 м.
Битрейт                                  : 1306 Кбит/сек
Ширина                                   : 720 пикселей
Высота                                   : 304 пикселя
Соотношение сторон                       : 2,35:1
Частота кадров                           : 24,000 кадра/сек
Цветовое пространство                    : YUV
Субдискретизация насыщенности            : 4:2:0
Битовая глубина                          : 8 бит
Тип развёртки                            : Прогрессивная
Метод сжатия                             : С потерями
Бит/(Пиксели*Кадры)                      : 0.249
Размер потока                            : 1,26 Гбайт (87%)
Библиотека кодирования                   : XviD 67
Аудио
Идентификатор                            : 1
Формат                                   : AC-3
Формат/Информация                        : Audio Coding 3
Расширение режима                        : CM (complete main)
Параметр Endianness формата              : Big
Идентификатор кодека                     : 2000
Продолжительность                        : 2 ч. 18 м.
Вид битрейта                             : Постоянный
Битрейт                                  : 192 Кбит/сек
Каналы                                   : 2 канала
Расположение каналов                     : Front: L R
Частота                                  : 48,0 КГц
Битовая глубина                          : 16 бит
Метод сжатия                             : С потерями
Размер потока                            : 190 Мбайт (13%)
Выравнивание                             : Разделение по промежуткам
Продолжительность промежутка             : 42  мс. (1,00 видеокадр)
Время предзагрузки промежутка            : 500  мс.



Показать сообщения:    

Текущее время: 07-Дек 23:17

Часовой пояс: UTC + 3


Вы не можете начинать темы
Вы не можете отвечать на сообщения
Вы не можете редактировать свои сообщения
Вы не можете удалять свои сообщения
Вы не можете голосовать в опросах
Вы не можете прикреплять файлы к сообщениям
Вы не можете скачивать файлы