Два дня, одна ночь / Deux jours, une nuit (Жан-Пьер Дарденн / Jean-Pierre Dardenne, Люк Дарденн / Luc Dardenne) [2014, Бельгия, Франция, Италия, драма, BDRip-AVC] MVO + Original (Fre) + Sub (Rus, Eng)


 

[Цитировать]

Два дня, одна ночь / Deux jours, une nuit Страна: Бельгия, Франция, Италия
Жанр: драма
Год выпуска: 2014
Продолжительность: 01:35:09
Перевод: Профессиональный (многоголосый закадровый) | R5
Cубтитры: русские, английские
Оригинальная аудиодорожка: английский
Режиссеры: Жан-Пьер Дарденн / Jean-Pierre Dardenne, Люк Дарденн / Luc Dardenne
В ролях: Марион Котийяр, Фабрицио Ронджоне, Пили Груан, Саймон Кодри, Катрин Сале, Батисте Сорнен, Ален Элуа, Мириам Акеддиу, Фабьен Шаша
Описание: Судьба Сандры зависит от решения нескольких человек, вынужденных выбирать между ней и деньгами. Пытаясь склонить людей на свою сторону, она ищет в их сердцах то, что они, кажется, давно потеряли...

Исходник: BDRemux, спасибо DarLeg
Качество видео: BDRip-AVC | | sample
Формат видео: MKV
Видео кодек: x264
Видео: AVC 1112x600 (1.85:1), 23.976 fps, ~3250 Kbps, 0.20 bit/pixel
Аудио #1: Russian AC3 6ch 48kHz 448Kbps | MVO R5
Аудио #2: French AC3 6ch 48kHz 448Kbps | Original
Формат субтитров: softsub (SRT)
Главы: есть, подписаны

MediaInfo | x264x264

--[Information] [24.03.2015 22:24:29] x264 [info]: frame I:602 Avg QP:15.14 size: 96851
--[Information] [24.03.2015 22:24:30] x264 [info]: frame P:27152 Avg QP:16.51 size: 38062
--[Information] [24.03.2015 22:24:30] x264 [info]: frame B:109128 Avg QP:18.53 size: 11244
--[Information] [24.03.2015 22:24:30] x264 [info]: consecutive B-frames: 0.9% 1.5% 5.4% 23.9% 18.4% 27.2% 7.5% 5.7% 2.7% 2.3% 1.9% 1.0% 0.4% 0.3% 0.2% 0.3% 0.5%
--[Information] [24.03.2015 22:24:30] x264 [info]: kb/s:3249.31
General
Complete name : E:\...\Deux.jours.une.nuit.2014.BDRip.x264.DD5.1.Rus.Fre-E76.mkv
Format : Matroska
Format version : Version 2
File size : 2.76 GiB
Duration : 1h 35mn
Overall bit rate : 4 147 Kbps
Movie name : Deux.jours.une.nuit.2014.BDRip.x264.DD5.1.Rus.Fre-E76
Encoded date : UTC 2015-03-25 16:33:09
Writing application : mkvmerge v7.0.0 ('Where We Going') 64bit built on Jun 9 2014 15:16:27
Writing library : libebml v1.3.0 + libmatroska v1.4.1
Video
ID : 1
Format : AVC
Format/Info : Advanced Video Codec
Format profile : High@L4.1
Format settings, CABAC : Yes
Format settings, ReFrames : 10 frames
Codec ID : V_MPEG4/ISO/AVC
Duration : 1h 35mn
Bit rate : 3 169 Kbps
Width : 1 112 pixels
Height : 600 pixels
Display aspect ratio : 1.85:1
Frame rate mode : Constant
Frame rate : 23.976 fps
Color space : YUV
Chroma subsampling : 4:2:0
Bit depth : 8 bits
Scan type : Progressive
Bits/(Pixel*Frame) : 0.198
Stream size : 2.11 GiB (76%)
Title : Deux jours une nuit (2014)
Writing library : x264 core 144 r2525kMod 40bb568
Encoding settings : cabac=1 / ref=10 / deblock=1:-3:-3 / analyse=0x3:0x113 / me=umh / subme=11 / psy=1 / fade_compensate=0.00 / psy_rd=1.00:0.00 / mixed_ref=1 / me_range=48 / chroma_me=1 / trellis=2 / 8x8dct=1 / cqm=0 / deadzone=21,11 / fast_pskip=1 / chroma_qp_offset=-2 / threads=3 / lookahead_threads=1 / sliced_threads=0 / nr=0 / decimate=1 / interlaced=0 / bluray_compat=0 / constrained_intra=0 / fgo=0 / bframes=16 / b_pyramid=2 / b_adapt=2 / b_bias=0 / direct=1 / weightb=1 / open_gop=0 / weightp=2 / keyint=240 / keyint_min=23 / scenecut=40 / intra_refresh=0 / rc_lookahead=0 / rc=crf / mbtree=0 / crf=16.5000 / qcomp=0.65 / qpmin=0 / qpmax=69 / qpstep=4 / vbv_maxrate=62500 / vbv_bufsize=78125 / crf_max=0.0 / nal_hrd=none / filler=0 / ip_ratio=1.40 / pb_ratio=1.30 / aq=1:0.90 / zones=132815,136881,q=30
Language : French
Default : Yes
Forced : No
Matrix coefficients : BT.709
Audio #1
ID : 2
Format : AC-3
Format/Info : Audio Coding 3
Mode extension : CM (complete main)
Format settings, Endianness : Big
Codec ID : A_AC3
Duration : 1h 35mn
Bit rate mode : Constant
Bit rate : 448 Kbps
Channel(s) : 6 channels
Channel positions : Front: L C R, Side: L R, LFE
Sampling rate : 48.0 KHz
Bit depth : 16 bits
Compression mode : Lossy
Stream size : 305 MiB (11%)
Title : MVO R5
Language : Russian
Default : Yes
Forced : No
Audio #2
ID : 3
Format : AC-3
Format/Info : Audio Coding 3
Mode extension : CM (complete main)
Format settings, Endianness : Big
Codec ID : A_AC3
Duration : 1h 35mn
Bit rate mode : Constant
Bit rate : 448 Kbps
Channel(s) : 6 channels
Channel positions : Front: L C R, Side: L R, LFE
Sampling rate : 48.0 KHz
Bit depth : 16 bits
Compression mode : Lossy
Stream size : 305 MiB (11%)
Title : Original
Language : French
Default : No
Forced : No
Text #1
ID : 4
Format : UTF-8
Codec ID : S_TEXT/UTF8
Codec ID/Info : UTF-8 Plain Text
Title : R5
Language : Russian
Default : No
Forced : No
Text #2
ID : 5
Format : UTF-8
Codec ID : S_TEXT/UTF8
Codec ID/Info : UTF-8 Plain Text
Language : English
Default : No
Forced : No
Menu
00:00:00.000 : ru:01. Премия
00:09:59.933 : ru:02. Не сдаваться
00:17:49.360 : ru:03. Отказы
00:28:06.894 : ru:04. Помощь
00:42:43.519 : ru:05. Сомнения
00:54:54.249 : ru:06. Опять неудача
01:05:37.058 : ru:07. Таблетки
01:14:19.956 : ru:08. Борьба продолжается
01:23:05.230 : ru:09. Голосование
01:31:56.970 : ru:10. Заключительные титры

Скриншоты



vs source



Показать сообщения:    

Текущее время: 08-Дек 17:20

Часовой пояс: UTC + 3


Вы не можете начинать темы
Вы не можете отвечать на сообщения
Вы не можете редактировать свои сообщения
Вы не можете удалять свои сообщения
Вы не можете голосовать в опросах
Вы не можете прикреплять файлы к сообщениям
Вы не можете скачивать файлы