Безупречная репутация / Ссора / Тряпка / Coup de torchon (Бертран Тавернье / Bertrand Tavernier) [1981, Франция, драма, DVDRip] DVO (НТВ)


Статистика раздачи [Обновить пиров]
Размер:  1.46 GB   |    Зарегистрирован:  10 месяцев   |    Скачан:  0 раз

Полного источника не было: Никогда

 
   
 
 
 

[Цитировать]

Безупречная репутация / Ссора / Тряпка / Coup de torchon Страна: Франция
Жанр: драма
Год выпуска: 1981
Продолжительность: 02:08:40
Перевод: Профессиональный (двухголосый закадровый) - НТВ
Cубтитры: нет
Оригинальная аудиодорожка: нет
Режиссер: Бертран Тавернье / Bertrand Tavernier
В ролях: Филипп Нуаре, Изабель Юппер, Жан-Пьер Марьель, Стефан Одран, Эдди Митчелл, Ги Маршан, Ирен Скоблен, Мишель Бон, Жан Шампьон, Виктор Гарривье.
Описание: Люсьен Кордье - шеф полиции маленького городка в Западной Африке. Никто из местных жителей не воспринимает всерьёз единственного блюстителя порядка, ведь его главный принцип - никого не видеть и ничего не слышать.
Кордье никогда не доставал свой револьвер из кобуры, но, выстрелив однажды, уже не может остановиться. Его тайным союзником стала сама смерть. Она решает все проблемы.
Полицейский методично отстреливает своих врагов. Ему нечего опасаться, ведь для всех он по-прежнему всё тот же трусливый идиот Люсьен.

автор рипа - c00Ldude заслуживает особого упоминания и благодарности.
Перевод НТВ был позаимствован из раздачи

Качество видео: DVDRip
Формат видео: AVI
Видео: 720x432 (1.67:1), 23.976 fps, XviD build 47 ~1424 kbps avg, 0.19 bit/pixel
Аудио: 48 kHz, AC3 Dolby Digital, 2/0 (L,R) ch, ~192 kbps

MediaInfo

General
Complete name : D:\Public\Coup.de.Torchon.1981.Xvid.Criterion.Dvdrip.by.c00Ldude.Rus.(HTB).avi
Format : AVI
Format/Info : Audio Video Interleave
File size : 1.46 GiB
Duration : 2h 8mn
Overall bit rate : 1 626 Kbps
Writing application : VirtualDubMod 1.5.10.2 (build 2540/release)
Writing library : VirtualDubMod build 2540/release
Video
ID : 0
Format : MPEG-4 Visual
Format profile : Advanced Simple@L5
Format settings, BVOP : 4
Format settings, QPel : No
Format settings, GMC : No warppoints
Format settings, Matrix : Custom
Codec ID : XVID
Codec ID/Hint : XviD
Duration : 2h 8mn
Bit rate : 1 425 Kbps
Width : 720 pixels
Height : 432 pixels
Display aspect ratio : 1.667
Frame rate : 23.976 fps
Color space : YUV
Chroma subsampling : 4:2:0
Bit depth : 8 bits
Scan type : Progressive
Compression mode : Lossy
Bits/(Pixel*Frame) : 0.191
Stream size : 1.28 GiB (88%)
Writing library : XviD 1.2.0.dev47 (UTC 2006-11-01)
Audio
ID : 1
Format : AC-3
Format/Info : Audio Coding 3
Mode extension : CM (complete main)
Codec ID : 2000
Duration : 2h 8mn
Bit rate mode : Constant
Bit rate : 192 Kbps
Channel(s) : 2 channels
Channel positions : Front: L R
Sampling rate : 48.0 KHz
Bit depth : 16 bits
Compression mode : Lossy
Stream size : 177 MiB (12%)
Alignment : Split accross interleaves
Interleave, duration : 42 ms (1.00 video frame)
Interleave, preload duration : 500 ms

Скриншот c названием фильма

Скриншоты

[teatrix.ru].t14615.torrent 
Торрент: Зарегистрирован [ 2016-02-09 12:50 ] · B3F0B263DBB5965A0467F078B3CB1FF29BA5C7E6

Скачать .torrent

Скачать

15 KB

Статус: проверено
Скачан: 0 раз
Размер: 1.46 GB
terms.php



Быстрый ответ

Имя:

      
Для отправки сообщений необходимо включить JavaScript
Показать сообщения:    

Текущее время: 10-Дек 00:13

Часовой пояс: UTC + 3


Вы можете начинать темы
Вы можете отвечать на сообщения
Вы не можете редактировать свои сообщения
Вы не можете удалять свои сообщения
Вы не можете голосовать в опросах
Вы не можете прикреплять файлы к сообщениям
Вы можете скачивать файлы