Любовь женщин / Женская любовь / L'Amour des femmes (Мишель Суттер / Michel Soutter) [1982, Франция, Швейцария, мелодрама, VHSRip-AVC] Original Fre + Sub Rus (Lisok)


Статистика раздачи [Обновить пиров]
Размер:  1.39 GB   |    Зарегистрирован:  9 месяцев 26 дней   |    Скачан:  0 раз

Полного источника не было: Никогда

 
   
 
 
 

[Цитировать]

Любовь женщин / Женская любовь / L'Amour des femmes
Страна: Франция, Швейцария
Жанр: мелодрама
Год выпуска: 1982
Продолжительность: 01:33:45
Перевод: Субтитры
Cубтитры: русские
Оригинальная аудиодорожка: французский
Режиссер: Мишель Суттер / Michel Soutter
В ролях: Жан-Марк Бори/Jean-Marc Bory, Пьер Клеманти/Pierre Clémenti, Хайнц Беннент/Heinz Bennent, Жан-Пьер Мало/Jean-Pierre Malo, Орор Клеман/Aurore Clément, Северин Бюйар/Séverine Bujard, Анн Лоннберг/Anne Lonnberg, Хильде Циглер/Hilde Ziegler, Энн Беннент/Anne Bennent
Описание: У друзей Брюно и Филиппа не ладится с женщинами – они зрелые мужчины, но никак не могут понять, что такое женская любовь. Однажды они встречают Манфреда, их бывшего учителя немецкой литературы: он теперь работает футбольным арбитром. Весь он какой-то траченный жизнью, выпивающий и стареющий мужчина, который, как думают друзья, знает тайну женской любви. По случайному совпадению, Поль, подчинённый Брюно, просит своего патрона отвезти его на футбольный матч, который судит Манфред. Да и повод поехать в виде плаща, забытого арбитром, тоже подворачивается. Друзья вместе с Полем едут из Женевы в Базель, чтобы встретиться с Манфредом и разобраться в себе и своих отношениях с женщинами.
Мишель Суттер ни на мгновение не предаёт свою манеру снимать кино – простые мизансцены, сложные персонажи, запутанный, как жизнь, сценарий, одиночество, сквозящее в каждом кадре, щемящая грусть. Женщины и мужчины. Любовь, печаль и смерть. Удивительное кружение кинематографа вокруг этих тем.
Доп. информация: Перевод на слух – Lisok, тайминг – alex-kin.
Подготовка субтитров – Lisok, за что ей огромное спасибо!
Проект СУТТЕР
Сэмпл: http://multi-up.com/1078250
Качество видео: VHSRip
Формат видео: AVI
Видео: Intel ITU H.264 at 1271 kbps, 0.14 bit/pixel, 680x544 (1.25:1) at 25 fps
Аудио: AC3 Dolby Digital at 256.00 kbps, 2 ch, 48 kHz
Формат субтитров: softsub (SRT)

MediaInfo

Формат : AVI
Формат/Информация : Audio Video Interleave
Профиль формата : OpenDML
Размер файла : 1,39 Гбайт
Продолжительность : 1 ч. 33 м.
Общий поток : 2125 Кбит/сек
Программа кодирования : Lavf56.36.100
Видео
Идентификатор : 1
Формат : AVC
Формат/Информация : Advanced Video Codec
Профиль формата : Main@L3.0
Параметр CABAC формата : Да
Параметр ReFrames формата : 2 кадры
Идентификатор кодека : H264
Продолжительность : 1 ч. 33 м.
Битрейт : 1857 Кбит/сек
Ширина : 680 пикс.
Высота : 544 пикс.
Соотношение сторон : 5:4
Режим частоты кадров : Переменный
Частота кадров : 25,000 кадр/сек
Цветовое пространство : YUV
Подвыборка цветности : 4:2:0
Битовая глубина : 8 бит
Тип развёртки : Прогрессивная
Бит/(Пиксели*Кадры) : 0.201
Размер потока : 1,22 Гбайт (87%)
Аудио
Идентификатор : 0
Формат : AC-3
Формат/Информация : Audio Coding 3
Расширение режима : CM (complete main)
Идентификатор кодека : 2000
Продолжительность : 1 ч. 33 м.
Вид битрейта : Постоянный
Битрейт : 256 Кбит/сек
Канал(ы) : 2 канала(ов)
Расположение каналов : Front: L R
Частота : 48,0 КГц
Битовая глубина : 16 бит
Метод сжатия : С потерями
Размер потока : 172 Мбайт (12%)
Выравнивание : Соединение по промежуткам
Продолжительность промежутка : 40 мс. (1,00 видеокадр)

Фрагмент субтитров

1
00:00:44,920 --> 00:00:47,480
ХАЙНЦ БЕННЕНТ
2
00:00:48,280 --> 00:00:50,760
ПЬЕР КЛЕМАНТИ
3
00:00:51,640 --> 00:00:54,080
ЖАН-МАРК БОРИ
4
00:00:54,920 --> 00:00:57,920
ОРОР КЛЕМАН
в роли Зоэ
5
00:00:58,800 --> 00:01:03,640
"ЛЮБОВЬ ЖЕНЩИН"
6
00:01:04,520 --> 00:01:08,000
Фильм
МИШЕЛЯ СУТТЕРА
7
00:01:31,640 --> 00:01:34,640
Оператор
ХАНС ЛИШТИ
8
00:01:35,480 --> 00:01:38,520
Звук
РЕНЕ СЮТТЕРЛЕН
9
00:01:39,320 --> 00:01:43,280
Монтаж НИКОЛЬ ЛЮБЧАНСКИ
и ЖАН-ЛУИ ГОТЭ
10
00:01:49,880 --> 00:01:51,710
Композитор
ПАТРИК ЖУВЕ
11
00:01:51,840 --> 00:01:54,600
МАГАЛИ ШВАРЦ исполняет фрагменты
"Женская любовь и жизнь" ШУМАНА
12
00:01:55,320 --> 00:01:58,880
Режиссер
МИШЕЛЬ СУТТЕР
13
00:02:58,510 --> 00:03:02,080
- И кто умер сегодня?
- Бадер...
14
00:03:02,450 --> 00:03:05,710
Ландоль, Северини...
15
00:03:06,570 --> 00:03:08,570
Всего 8.
16
00:03:09,310 --> 00:03:11,240
В том числе
маленький Фердинанд,
17
00:03:11,680 --> 00:03:13,360
"после продолжительных страданий,
18
00:03:14,280 --> 00:03:16,200
которые он переносил
столь мужественно".
19
00:03:17,240 --> 00:03:19,800
- Сколько ему было лет?
- Восемь.
20
00:03:24,240 --> 00:03:29,370
Как прекрасны босые ноги
того, кто шагает по горам!

Скриншот c названием фильма

Скриншоты

[teatrix.ru].t14616.torrent 
Торрент: Зарегистрирован [ 2016-02-09 12:50 ] · 1A4BF8F14BBE4AC636E10C2AE396730676A51BBD

Скачать .torrent

Скачать

15 KB

Статус: проверено
Скачан: 0 раз
Размер: 1.39 GB
terms.php



Быстрый ответ

Имя:

      
Для отправки сообщений необходимо включить JavaScript
Показать сообщения:    

Текущее время: 06-Дек 22:54

Часовой пояс: UTC + 3


Вы можете начинать темы
Вы можете отвечать на сообщения
Вы не можете редактировать свои сообщения
Вы не можете удалять свои сообщения
Вы не можете голосовать в опросах
Вы не можете прикреплять файлы к сообщениям
Вы можете скачивать файлы