Метаморфозы / Métamorphoses (Кристоф Оноре / Christophe Honoré) [2014, Франция, драма, экранизация, мифология, DVDRip-AVC] + Sub Rus + Original Fre


Статистика раздачи [Обновить пиров]
Размер:  1.52 GB   |    Зарегистрирован:  9 месяцев 28 дней   |    Скачан:  0 раз

Полного источника не было: Никогда

 
   
 
 
 

[Цитировать]

Метаморфозы / Métamorphoses
Страна: Франция
Жанр: Драма, Экранизация, Мифология
Год выпуска: 2014
Продолжительность: 01:42:00
Перевод: Субтитры
Cубтитры: русские, английские, голландские
Оригинальная аудиодорожка: французский
Режиссер: Кристоф Оноре / Christophe Honoré
В ролях: Амира Акили / Amira Akili, Себастьен Гирель / Sébastien Hirel, Мелоди Ришар / Mélodie Richard, Дамиен Шапелль / Damien Chapelle
Описание: Фильм предлагает посмотреть на героев одноименного произведения Овидия в современных декорациях. Античные боги живут в иммигрантских кварталах, водят автомобили, ходят по магазинам. В их жизнь вплетены обыденные ритуалы, которые, однако, не мешают проявляться античным страстям. Возвышенные, дерзкие, надменные и любвиобильные - они удачно сочетаются с неторопливым ритмом фильма, выверенным монтажом и нежным саундтреком. Благодаря отменной режиссуре у Кристофа Оноре получается один из самых интересных и выдающихся фильмов во французском кинематографе последних двух лет.
Сэмпл: http://sendfile.su/1198580
Качество видео: DVDRip-AVC
Формат видео: MKV
Видео: 1 904 Kbps, 720x424@1024x424, at 25.000 fps, AVC (High@L3.1)(CABAC/10 Ref Frames)
Аудио: 224 Kbps, 48.0 KHz, 16 bits, 6 channels, AC-3
Формат субтитров: softsub (SRT)

MediaInfo

General
Unique ID : 171265419863562580075853980930777298155 (0x80D8852258952B1D9A87407E7EBC34EB)
Complete name : C:\Users\Никита\Desktop\Christophe Honore - (2014) Metamorphoses.mkv
Format : Matroska
Format version : Version 4 / Version 2
File size : 1.52 GiB
Duration : 1h 42mn
Overall bit rate : 2 132 Kbps
Encoded date : UTC 2016-01-29 04:33:59
Writing application : mkvmerge v7.6.0 ('Garden of Dreams') 64bit built on Feb 8 2015 13:04:34
Writing library : libebml v1.3.1 + libmatroska v1.4.2
_STATISTICS_WRITING_APP : mkvmerge v7.6.0 ('Garden of Dreams') 64bit built on Feb 8 2015 13:04:34
_STATISTICS_WRITING_DATE_UTC : 2016-01-29 04:33:59
_STATISTICS_TAGS : BPS DURATION NUMBER_OF_FRAMES NUMBER_OF_BYTES
DURATION : 01:37:37.346000000
NUMBER_OF_FRAMES : 531
NUMBER_OF_BYTES : 24943
Video
ID : 1
Format : AVC
Format/Info : Advanced Video Codec
Format profile : High@L3.1
Format settings, CABAC : Yes
Format settings, ReFrames : 10 frames
Codec ID : V_MPEG4/ISO/AVC
Duration : 1h 42mn
Bit rate : 1 904 Kbps
Width : 720 pixels
Height : 424 pixels
Display aspect ratio : 2.40:1
Frame rate mode : Constant
Frame rate : 25.000 fps
Color space : YUV
Chroma subsampling : 4:2:0
Bit depth : 8 bits
Scan type : Progressive
Bits/(Pixel*Frame) : 0.249
Stream size : 1.33 GiB (88%)
Writing library : x264 core 148 r2638 7599210
Encoding settings : cabac=1 / ref=10 / deblock=1:-1:-1 / analyse=0x3:0x133 / me=umh / subme=11 / psy=1 / psy_rd=1.00:0.15 / mixed_ref=1 / me_range=32 / chroma_me=1 / trellis=2 / 8x8dct=1 / cqm=0 / deadzone=21,11 / fast_pskip=0 / chroma_qp_offset=-3 / threads=12 / lookahead_threads=2 / sliced_threads=0 / nr=0 / decimate=0 / interlaced=0 / bluray_compat=0 / constrained_intra=0 / bframes=8 / b_pyramid=2 / b_adapt=2 / b_bias=0 / direct=3 / weightb=1 / open_gop=0 / weightp=2 / keyint=250 / keyint_min=25 / scenecut=40 / intra_refresh=0 / rc_lookahead=100 / rc=2pass / mbtree=1 / bitrate=1904 / ratetol=3.0 / qcomp=0.60 / qpmin=0 / qpmax=69 / qpstep=4 / cplxblur=20.0 / qblur=0.5 / vbv_maxrate=17500 / vbv_bufsize=17500 / nal_hrd=none / filler=0 / ip_ratio=1.40 / aq=1:1.00
Language : English
Default : Yes
Forced : No
_STATISTICS_WRITING_APP : mkvmerge v7.6.0 ('Garden of Dreams') 64bit built on Feb 8 2015 13:04:34
_STATISTICS_WRITING_DATE_UTC : 2016-01-29 04:33:59
_STATISTICS_TAGS : BPS DURATION NUMBER_OF_FRAMES NUMBER_OF_BYTES
DURATION : 01:42:00.000000000
NUMBER_OF_FRAMES : 153000
NUMBER_OF_BYTES : 1456659339
Audio
ID : 2
Format : AC-3
Format/Info : Audio Coding 3
Mode extension : CM (complete main)
Format settings, Endianness : Big
Codec ID : A_AC3
Duration : 1h 42mn
Bit rate mode : Constant
Bit rate : 224 Kbps
Channel(s) : 6 channels
Channel positions : Front: L C R, Side: L R, LFE
Sampling rate : 48.0 KHz
Bit depth : 16 bits
Compression mode : Lossy
Stream size : 163 MiB (11%)
Default : Yes
Forced : No
Text #1
ID : 3
Format : VobSub
Muxing mode : zlib
Codec ID : S_VOBSUB
Codec ID/Info : The same subtitle format used on DVDs
Language : Dutch
Default : No
Forced : No
Text #2
ID : 4
Format : VobSub
Muxing mode : zlib
Codec ID : S_VOBSUB
Codec ID/Info : The same subtitle format used on DVDs
Language : English
Default : No
Forced : No
Text #3
ID : 5
Format : UTF-8
Codec ID : S_TEXT/UTF8
Codec ID/Info : UTF-8 Plain Text
Language : Russian
Default : No
Forced : No

Скриншот c названием фильма

Скриншоты

Пример субтитров

1
00:00:46,313 --> 00:00:52,593
"Ныне хочу рассказать про тела, превращенные в формы новые". Овидий
(Пер. С. Шервинского)
2
00:01:39,552 --> 00:01:42,273
МЕТАМОРФОЗЫ
3
00:05:59,393 --> 00:06:02,153
Европа и Юпитер
4
00:07:09,032 --> 00:07:10,193
Мудак!
5
00:10:47,393 --> 00:10:48,913
Поняла, кто я?
6
00:10:49,112 --> 00:10:49,992
Нет.
7
00:10:51,353 --> 00:10:53,052
Я забираю тебя, Европа.
8
00:10:53,193 --> 00:10:55,012
Твоя жизнь изменится.
9
00:10:55,193 --> 00:10:56,433
Ты серьезно?
10
00:10:57,273 --> 00:10:59,633
- Я похищаю тебя.
- Спасаешь.
11
00:11:11,992 --> 00:11:15,113
Я знаю этого человека.
Он оплакивает свою дочь.
12
00:11:22,752 --> 00:11:24,432
Он не знает, где она.
13
00:11:25,632 --> 00:11:27,512
И жива ли.
14
00:11:28,833 --> 00:11:30,753
Этот человек плачет из-за меня.
15
00:11:32,112 --> 00:11:33,672
Его дочь зовут Ио.
16
00:11:33,833 --> 00:11:36,552
Накануне она исчезла точно так же.
17
00:12:26,433 --> 00:12:28,473
Продолжу свой путь.
18
00:12:40,992 --> 00:12:41,868
Постой.
19
00:13:06,912 --> 00:13:08,232
Помогите!
20
00:14:25,992 --> 00:14:27,752
Что ты здесь голым делаешь?
21
00:14:27,912 --> 00:14:28,791
Ничего.
22
00:14:33,312 --> 00:14:34,672
С тобой кто-то есть.
23
00:14:35,353 --> 00:14:37,953
Нет. Что ты воображаешь?
24
00:14:39,632 --> 00:14:40,793
А это что?
25
00:14:41,993 --> 00:14:43,153
Корова.
26
00:14:44,273 --> 00:14:46,072
Она пришла, чтобы лечь рядом со мной.
27
00:14:46,873 --> 00:14:48,793
Должно быть, отбилась от стада.
28
00:14:49,272 --> 00:14:51,352
Здесь в округе нет стада.
29
00:14:53,672 --> 00:14:54,833
Она красивая.
30
00:14:59,712 --> 00:15:01,273
Я ее с собой возьму.
31
00:15:07,192 --> 00:15:08,913
Я доверю ее Аргусу.
32
00:15:10,992 --> 00:15:13,713
Если она такая резвая,
то от него не убежит.
33
00:15:16,553 --> 00:15:17,792
Как хочешь.
34
00:15:54,232 --> 00:15:55,232
Это отвратительно.
35
00:15:55,392 --> 00:15:57,792
Помочь ей означало бы
разоблачить себя.
36
00:15:59,032 --> 00:16:00,472
Что с ней стало?
37
00:16:01,032 --> 00:16:02,733
Она навсегда осталась коровой?
38
00:16:02,892 --> 00:16:05,712
Моя жена отдала ее Аргусу,
человеку со 100 глазами.
39
00:16:07,073 --> 00:16:08,712
Я не мог ей помочь.
40
00:16:09,113 --> 00:16:11,512
По крайне мере сам.
Но я попросил Меркурия...
41
00:16:11,952 --> 00:16:12,912
Кто он?
42
00:16:13,073 --> 00:16:14,312
Один из моих сыновей.
43
00:16:14,672 --> 00:16:15,952
Самый умный.
44
00:16:16,232 --> 00:16:18,152
Я попросил его убить Аргуса
45
00:16:18,473 --> 00:16:20,192
и освободить Ио от мук.
46
00:18:10,297 --> 00:18:12,937
Расскажи мне, откуда твой инструмент.
47
00:18:13,537 --> 00:18:14,777
Моя свирель?
48
00:18:15,176 --> 00:18:16,697
Должно быть целая история.
49
00:18:29,296 --> 00:18:31,897
У подножия ледяных вершин Аркадии,
50
00:18:32,857 --> 00:18:34,897
среди нимф,
51
00:18:35,777 --> 00:18:38,096
обитала одна, чья известность
была шире остальных.
52
00:18:39,016 --> 00:18:40,816
Ее звали Сиринга.
[teatrix.ru].t14617.torrent 
Торрент: Зарегистрирован [ 2016-02-09 12:50 ] · 5A8C1F9AA43DDA87D96B6A215EC1493CFDDDDB36

Скачать .torrent

Скачать

16 KB

Статус: проверено
Скачан: 0 раз
Размер: 1.52 GB
terms.php



Быстрый ответ

Имя:

      
Для отправки сообщений необходимо включить JavaScript
Показать сообщения:    

Текущее время: 08-Дек 17:18

Часовой пояс: UTC + 3


Вы можете начинать темы
Вы можете отвечать на сообщения
Вы не можете редактировать свои сообщения
Вы не можете удалять свои сообщения
Вы не можете голосовать в опросах
Вы не можете прикреплять файлы к сообщениям
Вы можете скачивать файлы