Сияние / The Shining (Стэнли Кубрик / Stanley Cubrick) [1980, Великобритания, США, мистика, триллер, драма, DVDRip-AVC] [Полная версия / Unrated US Cut] [FullScreen] MVO (НТВ) + AVO (Андрей Гаврилов-ранний) + Sub Rus, Eng + Original Eng


Статистика раздачи [Обновить пиров]
Размер:  2.9 GB   |    Зарегистрирован:  9 месяцев 23 дня   |    Скачан:  0 раз

Полного источника не было: Никогда

 
   
 
 
 

[Цитировать]

Сияние / Ясновидящие / The Shining / Полная версия / Unrated US Cut / FullScreen
Страна: Великобритания, США
Жанр: мистика, триллер, драма
Год выпуска: 1980
Продолжительность: 02:23:46
-
Перевод 1: Профессиональный (многоголосый закадровый) НТВ
Перевод 2: Авторский (одноголосый закадровый) Андрей Гаврилов-ранний со вставками Гаврилов-поздний
Cубтитры: русские (3 вида) и английские
Оригинальная аудиодорожка: английский
-
Режиссер: Стэнли Кубрик / Stanley Cubrick
В ролях: Джек Николсон, Шелли Дюваль, Дэнни Ллойд, Скэтмэн Крозерс, Бэрри Нельсон, Филип Стоун, Джо Тёркел, Энн Джексон, Тони Бертон, Лия Белда
-
Описание: Главный герой — Джек Торренс — приехал в элегантный уединенный отель, чтобы поработать смотрителем во время мертвого сезона вместе со своей женой и сыном. Торренс здесь раньше никогда не бывал. Или это не совсем так? Ответ лежит во мраке, сотканном из преступного кошмара…
-
Доп. информация: Эта версия известна также как расширенная американская версия, за Гаврилова-раннего спасибо karlll. Вставки сделал сам.
-
Сэмпл: http://sendfile.su/1198130
-
Качество видео: DVDRip-AVC (DVD9/camel)
Формат видео: MKV
Видео: 720x480 (4:3) @ 720x540, 23.976 fps, AVC, ~1 930 Kbps, 0.233 bits/pixel
Аудио 1: 48 kHz, AC3 Dolby Digital, 3/2 (L,C,R,l,r) + LFE ch, ~384 kbps MVO
Аудио 2: 48 kHz, AC3 Dolby Digital, 2/0 (L,R) ch, ~192 kbps AVO
Аудио 3: 48 kHz, AC3 Dolby Digital, 3/2 (L,C,R,l,r) + LFE ch, ~384 kbps ENG
Формат субтитров: softsub (SRT)

MediaInfo

x264 [info]: frame I:1137 Avg QP:16.00 size: 56418
x264 [info]: frame P:39004 Avg QP:18.11 size: 25930
x264 [info]: frame B:166667 Avg QP:20.67 size: 6033-General
Unique ID : 234869171391233999417718428525372604866 (0xB0B228326F66FB9A8D47D314089B81C2)
Complete name : C:\Users\ALEX\Downloads\Фильмы\The Shining.Full Screen.Unrated US Cut.1980.DUALRUS.ENG.DVDRip-AVC.x264.AC3.Subs.mkv
Format : Matroska
Format version : Version 4 / Version 2
File size : 2.90 GiB
Duration : 2h 23mn
Overall bit rate : 2 893 Kbps
Encoded date : UTC 2016-01-27 18:41:00
Writing application : mkvmerge v8.5.2 ('Crosses') 64bit
Writing library : libebml v1.3.3 + libmatroska v1.4.4
Video
ID : 1
Format : AVC
Format/Info : Advanced Video Codec
Format profile : High@L4.1
Format settings, CABAC : Yes
Format settings, ReFrames : 16 frames
Codec ID : V_MPEG4/ISO/AVC
Duration : 2h 23mn
Bit rate : 1 930 Kbps
Width : 720 pixels
Height : 480 pixels
Display aspect ratio : 4:3
Frame rate mode : Constant
Frame rate : 23.976 (24000/1001) fps
Color space : YUV
Chroma subsampling : 4:2:0
Bit depth : 8 bits
Scan type : Progressive
Bits/(Pixel*Frame) : 0.233
Stream size : 1.94 GiB (67%)
Title : The Shining.Full Screen.Unrated US Cut
Writing library : x264 core 148 r2638 7599210
Encoding settings : cabac=1 / ref=16 / deblock=1:1:1 / analyse=0x3:0x113 / me=umh / subme=11 / psy=1 / psy_rd=1.00:0.20 / mixed_ref=1 / me_range=32 / chroma_me=1 / trellis=2 / 8x8dct=1 / cqm=0 / deadzone=21,11 / fast_pskip=0 / chroma_qp_offset=-3 / threads=6 / lookahead_threads=1 / sliced_threads=0 / nr=0 / decimate=1 / interlaced=0 / bluray_compat=0 / constrained_intra=0 / bframes=16 / b_pyramid=2 / b_adapt=2 / b_bias=0 / direct=3 / weightb=1 / open_gop=0 / weightp=2 / keyint=240 / keyint_min=23 / scenecut=40 / intra_refresh=0 / rc_lookahead=60 / rc=2pass / mbtree=1 / bitrate=1930 / ratetol=1.0 / qcomp=0.60 / qpmin=0 / qpmax=69 / qpstep=4 / cplxblur=20.0 / qblur=0.5 / ip_ratio=1.40 / aq=1:1.00
Default : Yes
Forced : No
Audio #1
ID : 2
Format : AC-3
Format/Info : Audio Coding 3
Mode extension : CM (complete main)
Format settings, Endianness : Big
Codec ID : A_AC3
Duration : 2h 23mn
Bit rate mode : Constant
Bit rate : 384 Kbps
Channel(s) : 6 channels
Channel positions : Front: L C R, Side: L R, LFE
Sampling rate : 48.0 KHz
Frame rate : 31.250 fps (1536 spf)
Compression mode : Lossy
Stream size : 395 MiB (13%)
Title : MVO (НТВ)
Language : Russian
Default : Yes
Forced : No
Audio #2
ID : 3
Format : AC-3
Format/Info : Audio Coding 3
Mode extension : CM (complete main)
Format settings, Endianness : Big
Codec ID : A_AC3
Duration : 2h 23mn
Bit rate mode : Constant
Bit rate : 192 Kbps
Channel(s) : 2 channels
Channel positions : Front: L R
Sampling rate : 48.0 KHz
Frame rate : 31.250 fps (1536 spf)
Compression mode : Lossy
Stream size : 197 MiB (7%)
Title : AVO (Гаврилов-ранний) со вставками Гаврилов-поздний
Language : Russian
Default : No
Forced : No
Audio #3
ID : 4
Format : AC-3
Format/Info : Audio Coding 3
Mode extension : CM (complete main)
Format settings, Endianness : Big
Codec ID : A_AC3
Duration : 2h 23mn
Bit rate mode : Constant
Bit rate : 384 Kbps
Channel(s) : 6 channels
Channel positions : Front: L C R, Side: L R, LFE
Sampling rate : 48.0 KHz
Frame rate : 31.250 fps (1536 spf)
Compression mode : Lossy
Stream size : 395 MiB (13%)
Title : Original
Language : English
Default : No
Forced : No
Text #1
ID : 5
Format : UTF-8
Codec ID : S_TEXT/UTF8
Codec ID/Info : UTF-8 Plain Text
Duration : 2h 19mn
Bit rate : 67 bps
Count of elements : 1469
Stream size : 68.7 KiB (0%)
Title : Full (Киномания)
Language : Russian
Default : No
Forced : No
Text #2
ID : 6
Format : UTF-8
Codec ID : S_TEXT/UTF8
Codec ID/Info : UTF-8 Plain Text
Duration : 2h 19mn
Bit rate : 68 bps
Count of elements : 1432
Stream size : 70.0 KiB (0%)
Title : Full (Uncle Killer)
Language : Russian
Default : No
Forced : No
Text #3
ID : 7
Format : UTF-8
Codec ID : S_TEXT/UTF8
Codec ID/Info : UTF-8 Plain Text
Duration : 2h 19mn
Bit rate : 71 bps
Count of elements : 1501
Stream size : 72.9 KiB (0%)
Title : Full (DC)
Language : Russian
Default : No
Forced : No
Text #4
ID : 8
Format : UTF-8
Codec ID : S_TEXT/UTF8
Codec ID/Info : UTF-8 Plain Text
Duration : 2h 14mn
Bit rate : 40 bps
Count of elements : 1301
Stream size : 39.7 KiB (0%)
Title : Full
Language : English
Default : No
Forced : No

Скриншоты

[teatrix.ru].t14618.torrent 
Торрент: Зарегистрирован [ 2016-02-09 12:50 ] · 918BC354125F1F2D80AAB6750AD802EC4C555FFA

Скачать .torrent

Скачать

15 KB

Статус: проверено
Скачан: 0 раз
Размер: 2.9 GB
terms.php



Быстрый ответ

Имя:

      
Для отправки сообщений необходимо включить JavaScript
Показать сообщения:    

Текущее время: 03-Дек 16:45

Часовой пояс: UTC + 3


Вы можете начинать темы
Вы можете отвечать на сообщения
Вы не можете редактировать свои сообщения
Вы не можете удалять свои сообщения
Вы не можете голосовать в опросах
Вы не можете прикреплять файлы к сообщениям
Вы можете скачивать файлы