Который час в твоём мире? / Сколько времени в твоём мире? / Dar donya ye to saat chand ast? / What's the Time in Your World? / A Time for Love (Сафи Язданиан / Safi Yazdanian) [2014, Иран, драма, DVDRip] Sub Rus


Статистика раздачи [Обновить пиров]
Размер:  1.46 GB   |    Зарегистрирован:  9 месяцев 23 дня   |    Скачан:  0 раз

Полного источника не было: Никогда

 
   
 
 
 

[Цитировать]

Который час в твоём мире?
Dar donya ye to saat chand ast?
-Страна: Иран
Жанр: драма
Год выпуска: 2014
Продолжительность: 01:36:29-Перевод: Субтитры (by sonnyb)
Cубтитры: русские
Оригинальная аудиодорожка: фарси-Режиссер: Сафи Язданиан / Safi Yazdanian
В ролях: Лейла Хатами, Али Мосаффа, Зара Хатами-Описание: По внезапной прихоти Голи решает вернуться в свой родной город Решт, на севере Ирана, после 20 лет жизни в Париже. Фархад, мастер по картинным рамкам, встречает её в аэропорту. Кажется, что он очень хорошо её знает, но молодая женщина совершенно ничего о нём не помнит.-Доп. информация: IMDb: 7,3/10 from 434 users-Качество видео: DVDRip
Формат видео: AVI
Видео: XviD, 720х400, 1710 Кбит/сек, 25,000 кадров/сек
Аудио: AC-3, 448 Кбит/сек, 6 каналов

Знали ли вы, что...

Лейла Хатами и Али Мосаффа являются мужем и женой?

Альтернативный постер

Пример субтитров

532
00:48:35,800 --> 00:48:38,793
Откуда же мне знать?
Три недели, месяц...
533
00:48:39,160 --> 00:48:40,992
Я вернулась в родной город.
534
00:48:41,160 --> 00:48:44,153
Это тебя расстраивает?
Или ты хочешь, чтобы я поскорее уехала?
535
00:48:44,480 --> 00:48:48,110
Расстраивает меня?
Ты совсем спятила?
536
00:48:48,440 --> 00:48:53,151
Именно он нёс гроб твоей матери на кладбище.
537
00:48:53,240 --> 00:48:55,994
Ты знаешь, как он заботился о ней?
538
00:48:56,240 --> 00:48:59,836
Отлично! В следующий раз увижу его и поблагодарю.
539
00:49:00,040 --> 00:49:02,316
Как интересно!
540
00:49:11,000 --> 00:49:14,596
Меня ещё никогда не избивали.
541
00:49:18,160 --> 00:49:21,392
Только моя "бабушка", моя бабушка,
542
00:49:21,800 --> 00:49:25,032
притворялась, что бьёт меня,
когда была очень сердита на меня.
543
00:49:25,440 --> 00:49:27,079
Вот так.
544
00:49:34,360 --> 00:49:36,079
Итак.
545
00:49:36,560 --> 00:49:42,512
Мсье Легранд сегодня устал.
546
00:49:44,320 --> 00:49:46,198
- Сегодня.
- Сегодня.
547
00:49:46,720 --> 00:49:48,154
Очень хорошо!
548
00:49:48,640 --> 00:49:53,112
- Он хочет остаться дома.
- Он хочет остаться дома.
549
00:50:24,320 --> 00:50:27,074
- Добрый день.
- Добрый...
550
00:50:27,960 --> 00:50:31,431
Привет, Антуан!
551
00:50:32,280 --> 00:50:35,671
Привет, детки.
Как поживаете?
552
00:50:36,080 --> 00:50:39,073
Мсье Антуан, вы ли это?

MediaInfo

Формат : AVI
Формат/Информация : Audio Video Interleave
Размер файла : 1,46 Гбайт
Продолжительность : 1 ч. 36 м.
Общий поток : 2168 Кбит/сек
Программа кодирования : VirtualDubMod 1.5.10.3 | www.virtualdub-fr.org || (build 2550/release)
Библиотека кодирования : VirtualDubMod build 2550/release
Видео
Идентификатор : 0
Формат : MPEG-4 Visual
Профиль формата : Advanced Simple@L5
Параметр BVOP формата : 1
Параметр QPel формата : Нет
Параметр GMC формата : Без точки перехода
Параметр матрицы формата : Default (MPEG)
Идентификатор кодека : XVID
Идентификатор кодека/Подсказка : XviD
Продолжительность : 1 ч. 36 м.
Битрейт : 1710 Кбит/сек
Ширина : 720 пикселей
Высота : 400 пикселей
Соотношение сторон : 16:9
Частота кадров : 25,000 кадров/сек
Цветовое пространство : YUV
Субдискретизация насыщенности : 4:2:0
Битовая глубина : 8 бит
Тип развёртки : Прогрессивная
Метод сжатия : С потерями
Бит/(Пиксели*Кадры) : 0.237
Размер потока : 1,15 Гбайт (79%)
Библиотека кодирования : XviD 1.2.1 (UTC 2008-12-04)
Аудио
Идентификатор : 1
Формат : AC-3
Формат/Информация : Audio Coding 3
Расширение режима : CM (complete main)
Параметр Endianness формата : Big
Идентификатор кодека : 2000
Продолжительность : 1 ч. 36 м.
Вид битрейта : Постоянный
Битрейт : 448 Кбит/сек
Каналы : 6 каналов
Расположение каналов : Front: L C R, Side: L R, LFE
Частота : 48,0 КГц
Частота кадров : 31,250 кадров/сек (1536 spf)
Метод сжатия : С потерями
Размер потока : 309 Мбайт (21%)
Выравнивание : Разделение по промежуткам
Продолжительность промежутка : 40 мс. (1,00 видеокадр)
Время предзагрузки промежутка : 500 мс.
[teatrix.ru].t14620.torrent 
Торрент: Зарегистрирован [ 2016-02-09 12:50 ] · 3CA2724A04EE69E284BBF907587F08931736ACF4

Скачать .torrent

Скачать

15 KB

Статус: проверено
Скачан: 0 раз
Размер: 1.46 GB
terms.php



Быстрый ответ

Имя:

      
Для отправки сообщений необходимо включить JavaScript
Показать сообщения:    

Текущее время: 03-Дек 14:35

Часовой пояс: UTC + 3


Вы можете начинать темы
Вы можете отвечать на сообщения
Вы не можете редактировать свои сообщения
Вы не можете удалять свои сообщения
Вы не можете голосовать в опросах
Вы не можете прикреплять файлы к сообщениям
Вы можете скачивать файлы