Полночь в Париже / Midnight in Paris (Вуди Аллен / Woody Allen) [2011, США, Испания, фэнтези, мелодрама, комедия, BDRip-AVC] Dub + AVO (Ю. Сербин) + MVO Ukr (Омикрон) + Sub Rus, Fre, Spa, Eng + Original Eng


 

[Цитировать]

Полночь в Париже
Midnight in Paris
- Страна: США, Испания
Жанр: фэнтези, мелодрама, комедия
Год выпуска: 2011
Продолжительность: 01:34:16
Перевод: Профессиональный (дублированный) (+ Ю. Сербин на франц речь)
Перевод 2: Авторский (одноголосый закадровый) Ю. Сербин
Перевод 3: Многоголосый закадровый Ukr (Омикрон) Отдельно
Cубтитры: Rus (Forced, Full), Fre, Spa, Eng
Оригинальная аудиодорожка: английский-Режиссер:
Вуди Аллен / Woody Allen
В ролях:
Оуэн Уилсон | Owen Wilson
Марион Котийяр | Marion Cotillard
Рэйчел МакАдамс | Rachel McAdams

Майкл Шин, Кэти Бейтс, Леа Сейду, Курт Фуллер, Мими Кеннеди, Том Хиддлстон, Кори Столл-ОписаниеПисатель и безнадежный романтик, уверенный в том, что должен был жить в 1920-е годы, приезжает в Париж со своей возлюбленной на каникулы и попадает в прошлое. Встречаясь там с Хемингуэем, Пикассо, супругами Фицджеральдами, Гертрудой Стайн, он понимает, что принадлежит этому времени и хочет остаться там навсегда.-
Оскар, 2012 год
Победитель (1):
Лучший сценарий


Золотой глобус, 2012 год
Победитель (1):
Лучший сценарий
-Сэмпл

IMDb: 7.70 (276 642)
Качество видео: BDRip-AVC Polnoch.v.Parizhe.2011.x264.Blu-Ray.Remux.(1080p).HDClub
Формат видео: MKV
Видео: AVC 4098 Kbps 1136 x 614 (1.850) 23.976 fps
Аудио: AC-3 320 Kbps 3 channels, 48.0 KHz Dub
Аудио 2: AC-3 320 Kbps 3 channels, 48.0 KHz AVO Ю. Сербин
Аудио 3: AC-3 320 Kbps 3 channels, 48.0 KHz Eng
Аудио 4: AC-3 224 Kbps 2 channels, 48.0 KHz MVO Ukr (Омикрон) Отдельно
Формат субтитров: softsub (SRT)

MediaInfo | LogLog

x264 [info]: frame I:771 Avg QP:15.22 size:120819
x264 [info]: frame P:26401 Avg QP:16.94 size: 46936
x264 [info]: frame B:108452 Avg QP:19.30 size: 15087
x264 [info]: consecutive B-frames: 1.0% 1.4% 2.8% 20.9% 17.8% 36.8% 8.2% 7.6% 1.5% 0.4% 0.4% 1.0% 0.2%
x264 [info]: mb I I16..4: 9.2% 74.8% 16.0%
x264 [info]: mb P I16..4: 0.2% 10.2% 0.7% P16..4: 27.1% 35.0% 18.3% 2.7% 0.2% skip: 5.6%
x264 [info]: mb B I16..4: 0.0% 0.8% 0.1% B16..8: 34.0% 22.7% 5.1% direct: 5.8% skip:31.5% L0:42.0% L1:44.0% BI:14.0%
x264 [info]: 8x8 transform intra:88.9% inter:56.8%
x264 [info]: direct mvs spatial:100.0% temporal:0.0%
x264 [info]: coded y,uvDC,uvAC intra: 96.1% 96.4% 92.8% inter: 27.6% 28.4% 14.9%
x264 [info]: i16 v,h,dc,p: 33% 13% 14% 41%
x264 [info]: i8 v,h,dc,ddl,ddr,vr,hd,vl,hu: 12% 7% 13% 9% 12% 12% 11% 11% 12%
x264 [info]: i4 v,h,dc,ddl,ddr,vr,hd,vl,hu: 17% 8% 9% 8% 13% 13% 11% 10% 10%
x264 [info]: i8c dc,h,v,p: 55% 15% 14% 17%
x264 [info]: Weighted P-Frames: Y:2.2% UV:1.6%
x264 [info]: ref P L0: 41.4% 10.4% 18.0% 6.5% 6.2% 4.2% 4.3% 2.3% 2.4% 1.9% 2.3% 0.1% 0.0%
x264 [info]: ref B L0: 73.9% 11.2% 5.1% 2.8% 2.0% 1.8% 1.4% 1.0% 0.6% 0.3%
x264 [info]: ref B L1: 93.3% 6.7%
x264 [info]: kb/s:4198.21
x264 [total]: encoded 135624 frames, 7.29 fps, 4198.22 kb/s, duration 5:10:06.35
Format : Matroska
Format version : Version 4 / Version 2
File size : 3.40 GiB
Duration : 1h 34mn
Overall bit rate : 5 161 Kbps
Encoded date : UTC 2015-10-03 01:41:42
Writing application : mkvmerge v6.7.0 ('Back to the Ground') 32bit built on Jan 8 2014 15:03:17
Writing library : libebml v1.3.0 + libmatroska v1.4.1
Video
ID : 1
Format : AVC
Format/Info : Advanced Video Codec
Format profile : High@L4.1
Format settings, CABAC : Yes
Format settings, ReFrames : 11 frames
Codec ID : V_MPEG4/ISO/AVC
Duration : 1h 34mn
Bit rate : 4 098 Kbps
Width : 1 136 pixels
Height : 614 pixels
Display aspect ratio : 1.85:1
Frame rate mode : Constant
Frame rate : 23.976 fps
Color space : YUV
Chroma subsampling : 4:2:0
Bit depth : 8 bits
Scan type : Progressive
Bits/(Pixel*Frame) : 0.245
Stream size : 2.70 GiB (79%)
Title : Midnight in Paris (2011) [rutracker.org]
Writing library : x264 core 148 r2579kMod 73ae2d1
Encoding settings : cabac=1 / ref=11 / deblock=1:-2:-1 / analyse=0x3:0x133 / me=umh / subme=11 / psy=1 / fade_compensate=0.00 / psy_rd=1.00:0.05 / mixed_ref=1 / me_range=32 / chroma_me=1 / trellis=2 / 8x8dct=1 / cqm=0 / deadzone=21,11 / fast_pskip=0 / chroma_qp_offset=-3 / threads=12 / lookahead_threads=3 / sliced_threads=0 / nr=0 / decimate=1 / interlaced=0 / bluray_compat=0 / constrained_intra=0 / fgo=0 / bframes=12 / b_pyramid=2 / b_adapt=2 / b_bias=0 / direct=3 / weightb=1 / open_gop=0 / weightp=2 / keyint=250 / keyint_min=23 / scenecut=40 / intra_refresh=0 / rc_lookahead=80 / rc=crf / mbtree=0 / crf=17.9000 / qcomp=0.60 / qpmin=0 / qpmax=69 / qpstep=4 / vbv_maxrate=50000 / vbv_bufsize=62500 / crf_max=0.0 / nal_hrd=none / filler=0 / ip_ratio=1.40 / pb_ratio=1.30 / aq=3:0.90
Language : English
Default : Yes
Forced : No
Audio #1
ID : 2
Format : AC-3
Format/Info : Audio Coding 3
Mode extension : CM (complete main)
Format settings, Endianness : Big
Codec ID : A_AC3
Duration : 1h 34mn
Bit rate mode : Constant
Bit rate : 320 Kbps
Channel(s) : 3 channels
Channel positions : Front: L C R
Sampling rate : 48.0 KHz
Compression mode : Lossy
Stream size : 216 MiB (6%)
Title : DUB
Language : Russian
Default : Yes
Forced : No
Audio #2
ID : 3
Format : AC-3
Format/Info : Audio Coding 3
Mode extension : CM (complete main)
Format settings, Endianness : Big
Codec ID : A_AC3
Duration : 1h 34mn
Bit rate mode : Constant
Bit rate : 320 Kbps
Channel(s) : 3 channels
Channel positions : Front: L C R
Sampling rate : 48.0 KHz
Compression mode : Lossy
Stream size : 216 MiB (6%)
Title : AVO [U. Serbin]
Language : Russian
Default : No
Forced : No
Audio #3
ID : 4
Format : AC-3
Format/Info : Audio Coding 3
Mode extension : CM (complete main)
Format settings, Endianness : Big
Codec ID : A_AC3
Duration : 1h 34mn
Bit rate mode : Constant
Bit rate : 320 Kbps
Channel(s) : 3 channels
Channel positions : Front: L C R
Sampling rate : 48.0 KHz
Compression mode : Lossy
Stream size : 216 MiB (6%)
Title : Original
Language : English
Default : No
Forced : No
Text #1
ID : 5
Format : UTF-8
Codec ID : S_TEXT/UTF8
Codec ID/Info : UTF-8 Plain Text
Title : Forced
Language : Russian
Default : Yes
Forced : No
Text #2
ID : 6
Format : UTF-8
Codec ID : S_TEXT/UTF8
Codec ID/Info : UTF-8 Plain Text
Title : Full R5
Language : Russian
Default : No
Forced : No
Text #3
ID : 7
Format : UTF-8
Codec ID : S_TEXT/UTF8
Codec ID/Info : UTF-8 Plain Text
Title : Full (NOTABENOID)
Language : Russian
Default : No
Forced : No
Text #4
ID : 8
Format : UTF-8
Codec ID : S_TEXT/UTF8
Codec ID/Info : UTF-8 Plain Text
Title : Full
Language : French
Default : No
Forced : No
Text #5
ID : 9
Format : UTF-8
Codec ID : S_TEXT/UTF8
Codec ID/Info : UTF-8 Plain Text
Title : Full
Language : Spanish
Default : No
Forced : No
Text #6
ID : 10
Format : UTF-8
Codec ID : S_TEXT/UTF8
Codec ID/Info : UTF-8 Plain Text
Title : Full
Language : English
Default : No
Forced : No
Text #7
ID : 11
Format : UTF-8
Codec ID : S_TEXT/UTF8
Codec ID/Info : UTF-8 Plain Text
Title : Full [Eng & Fre]
Language : English
Default : No
Forced : No
Menu
00:00:00.000 : en:00:00:00.000
00:05:08.891 : en:00:05:08.891
00:12:13.357 : en:00:12:13.357
00:16:06.048 : en:00:16:06.048
00:23:51.263 : en:00:23:51.263
00:29:10.999 : en:00:29:10.999
00:35:35.174 : en:00:35:35.174
00:42:52.903 : en:00:42:52.903
00:47:40.649 : en:00:47:40.649
00:53:42.177 : en:00:53:42.177
00:58:22.290 : en:00:58:22.290
01:04:03.339 : en:01:04:03.339
01:10:53.749 : en:01:10:53.749
01:17:58.799 : en:01:17:58.799
01:24:14.549 : en:01:24:14.549
01:28:29.887 : en:01:28:29.887

Скриншоты







Показать сообщения:    

Текущее время: 11-Дек 11:07

Часовой пояс: UTC + 3


Вы не можете начинать темы
Вы не можете отвечать на сообщения
Вы не можете редактировать свои сообщения
Вы не можете удалять свои сообщения
Вы не можете голосовать в опросах
Вы не можете прикреплять файлы к сообщениям
Вы не можете скачивать файлы