Любовь в двадцать лет: Антуан и Колетт / L'amour à vingt ans: Antoine et Colette (Франсуа Трюффо / Francois Truffaut) [1962, Франция, драма, BDRip] MVO + Sub Rus + Original Fre


Статистика раздачи [Обновить пиров]
Размер:  518 MB   |    Зарегистрирован:  10 месяцев 2 дня   |    Скачан:  0 раз

Полного источника не было: Никогда

 
   
 
 
 

[Цитировать]

Любовь в двадцать лет: Антуан и Колетт / L'amour à vingt ans: Antoine et Colette
Страна: Франция
Жанр: драма
Год выпуска: 1962
Продолжительность: 00:30:14
Перевод: Профессиональный (многоголосый закадровый)
Cубтитры: русские
Оригинальная аудиодорожка: французский

Режиссер: Франсуа Трюффо / Francois Truffaut
В ролях: Жан-Пьер Лео, Мари-Франс Пизье, Жан-Франсуа Адам, Патрик Оффэ, Франсуа Дарбон, Пьер Шеффер, Рози Варт
Описание: Фильм входит в цикл фильмов, объединенных одним героем, Антуаном Дуанелем. Цикл начинается полуавтобиографическим фильмом «Четыреста ударов» (Les Quatre cents coups) и продолжается в таких фильмах, как «Антуан и Колетт» (Antoine et Colette, новелла в фильме «Любовь в 20 лет», 1962), «Украденные поцелуи» (Baisers volés, 1968), «Семейный очаг» (Domicile conjugal, 1970), «Сбежавшая любовь» (L’amoure en fuite, 1979).
"Любовь в двадцать лет" (L'Amour a vingt ans, 1962), альманах, состоящий из новелл француза Франсуа Трюффо, поляка Анджея Вайды, итальянца Ренцо Росселлини, австрийца Марселя Офюльса и японца Cинтаро Исихары... И дробная форма альманаха, и умиление молодостью как таковой характерны для начала 1960-х годов.
В новелле "Антуан и Колетт" герою 17 лет, он работает на фабрике грампластинок, активно и наивно клеит очаровательную ровесницу.

Качество видео: BDRip
Формат видео: AVI
Видео: 720x304 (2.37:1), 24 fps, XviD build 73 ~1998 kbps avg, 0.38 bit/pixel
Аудио: 48 kHz, AC3 Dolby Digital, 2/0 (L,R) ch, ~192 kbps - многоголосый
Аудио: 48 kHz, AC3 Dolby Digital, 2/0 (L,R) ch, ~192 kbps - оригинал

MediaInfo

Общее
Полное имя : H:\Торрент отдачи 5\Antoine.et.Colette.1962.bdrip_[teko]\Antoine.et.Colette.1962.bdrip.avi
Формат : AVI
Формат/Информация : Audio Video Interleave
Размер файла : 518 Мбайт
Продолжительность : 30 м.
Общий поток : 2397 Кбит/сек
Программа кодирования : VirtualDubMod 1.5.10.3 | www.virtualdub-fr.org || (build 2550/release)
Библиотека кодирования : VirtualDubMod build 2550/release
Видео
Идентификатор : 0
Формат : MPEG-4 Visual
Профиль формата : Advanced Simple@L5
Параметр BVOP формата : 2
Параметр QPel формата : Нет
Параметр GMC формата : Без точки перехода
Параметр матрицы формата : Выборочная
Идентификатор кодека : XVID
Идентификатор кодека/Подсказка : XviD
Продолжительность : 30 м.
Битрейт : 1999 Кбит/сек
Ширина : 720 пикселей
Высота : 304 пикселя
Соотношение сторон : 2,35:1
Частота кадров : 24,000 кадра/сек
Цветовое пространство : YUV
Субдискретизация насыщенности : 4:2:0
Битовая глубина : 8 бит
Тип развёртки : Прогрессивная
Метод сжатия : С потерями
Бит/(Пиксели*Кадры) : 0.381
Размер потока : 432 Мбайт (83%)
Библиотека кодирования : XviD 73
Аудио #1
Идентификатор : 1
Формат : AC-3
Формат/Информация : Audio Coding 3
Расширение режима : CM (complete main)
Параметр Endianness формата : Big
Идентификатор кодека : 2000
Продолжительность : 30 м.
Вид битрейта : Постоянный
Битрейт : 192 Кбит/сек
Каналы : 2 канала
Расположение каналов : Front: L R
Частота : 48,0 КГц
Битовая глубина : 16 бит
Метод сжатия : С потерями
Размер потока : 41,5 Мбайт (8%)
Выравнивание : Разделение по промежуткам
Продолжительность промежутка : 42 мс. (1,00 видеокадр)
Время предзагрузки промежутка : 500 мс.
Аудио #2
Идентификатор : 2
Формат : AC-3
Формат/Информация : Audio Coding 3
Расширение режима : CM (complete main)
Параметр Endianness формата : Big
Идентификатор кодека : 2000
Продолжительность : 30 м.
Вид битрейта : Постоянный
Битрейт : 192 Кбит/сек
Каналы : 2 канала
Расположение каналов : Front: L R
Частота : 48,0 КГц
Битовая глубина : 16 бит
Метод сжатия : С потерями
Размер потока : 41,5 Мбайт (8%)
Выравнивание : Разделение по промежуткам
Продолжительность промежутка : 42 мс. (1,00 видеокадр)
Время предзагрузки промежутка : 500 мс.

Скриншоты

[teatrix.ru].t14623.torrent 
Торрент: Зарегистрирован [ 2016-02-09 12:50 ] · F2D3368C81BF34747D89AFD66696037D2FB384B3

Скачать .torrent

Скачать

11 KB

Статус: проверено
Скачан: 0 раз
Размер: 518 MB
terms.php



Быстрый ответ

Имя:

      
Для отправки сообщений необходимо включить JavaScript
Показать сообщения:    

Текущее время: 11-Дек 14:59

Часовой пояс: UTC + 3


Вы можете начинать темы
Вы можете отвечать на сообщения
Вы не можете редактировать свои сообщения
Вы не можете удалять свои сообщения
Вы не можете голосовать в опросах
Вы не можете прикреплять файлы к сообщениям
Вы можете скачивать файлы