Мартин / Martín (Хулио Медем / Julio Medem) [1988, Испания, драма, мистика, короткометражный, VHSRip] VO + Sub Rus + Original Spa


Статистика раздачи [Обновить пиров]
Размер:  372 MB   |    Зарегистрирован:  9 месяцев 23 дня   |    Скачан:  1 раз

Полного источника не было: 1 месяц 11 дней

 
   
 
 
 

[Цитировать]

Мартин / Martín
Страна: Испания
Жанр: драма, мистика, короткометражный
Год выпуска: 1988
Продолжительность: 00:27:02
Перевод: Одноголосый закадровый
Cубтитры: русские
Оригинальная аудиодорожка: испанский
Режиссер: Хулио Медем / Julio Medem
В ролях: Laura Bayonas, Miguel Ángel García Fuentes, Paloma Cela, José Segura, Raúl Fraire, Chumilla-Carbajosa
Описание: Юный Мартин знакомится с новой соседкой, которая, похоже, обладает сверхспособностями.
Сэмпл: http://multi-up.com/1056433
Качество видео: VHSRip
Формат видео: AVI
Видео: xvid at 1464 Кбит/сек : 352 x 258 (1.490) at 24.000 fps
Аудио 1: MPEG Audio at 224 Кбит/сек : 2 канала, 44,1 КГц (Русский)
Аудио 2: MPEG Audio at 224 Кбит/сек : 2 канала, 44,1 КГц(Испанский)
Формат субтитров: softsub (SRT)
Доп. информация о субтитрах: Русские внешние (kidkong)

MediaInfo

Общее
Полное имя : F:\С моей озвучкой\Мартин\Martín.avi
Формат : AVI
Формат/Информация : Audio Video Interleave
Размер файла : 372 Мбайт
Продолжительность : 27 м.
Общий поток : 1926 Кбит/сек
Программа кодирования : VirtualDubModRus 1.5.10.2 (build 2542/release)
Библиотека кодирования : VirtualDubMod build 2542/release
Видео
Идентификатор : 0
Формат : xvid
Идентификатор кодека : xvid
Продолжительность : 27 м.
Битрейт : 1464 Кбит/сек
Ширина : 352 пикселя
Высота : 258 пикселей
Соотношение сторон : 3:2
Частота кадров : 24,000 кадра/сек
Бит/(Пиксели*Кадры) : 0.672
Размер потока : 283 Мбайт (76%)
Аудио #1
Идентификатор : 1
Формат : MPEG Audio
Версия формата : Version 1
Профиль формата : Layer 3
Режим : Joint stereo
Расширение режима : MS Stereo
Идентификатор кодека : 55
Идентификатор кодека/Подсказка : MP3
Продолжительность : 27 м.
Вид битрейта : Постоянный
Битрейт : 224 Кбит/сек
Каналы : 2 канала
Частота : 44,1 КГц
Метод сжатия : С потерями
Размер потока : 43,3 Мбайт (12%)
Выравнивание : Соединение по промежуткам
Продолжительность промежутка : 42 мс. (1,00 видеокадр)
Время предзагрузки промежутка : 522 мс.
Библиотека кодирования : LAME3.96
Аудио #2
Идентификатор : 2
Формат : MPEG Audio
Версия формата : Version 1
Профиль формата : Layer 3
Режим : Joint stereo
Расширение режима : MS Stereo
Идентификатор кодека : 55
Идентификатор кодека/Подсказка : MP3
Продолжительность : 27 м.
Вид битрейта : Постоянный
Битрейт : 224 Кбит/сек
Каналы : 2 канала
Частота : 44,1 КГц
Метод сжатия : С потерями
Размер потока : 43,3 Мбайт (12%)
Выравнивание : Разделение по промежуткам
Продолжительность промежутка : 42 мс. (1,00 видеокадр)
Время предзагрузки промежутка : 500 мс.

Скриншоты

[teatrix.ru].t14624.torrent 
Торрент: Зарегистрирован [ 2016-02-09 12:50 ] · 31FF0DCF6E8CEDB093E0ED5807D872C0F9E367F1

Скачать .torrent

Скачать

15 KB

Статус: проверено
Скачан: 1 раз
Размер: 372 MB
terms.php



Быстрый ответ

Имя:

      
Для отправки сообщений необходимо включить JavaScript
Показать сообщения:    

Текущее время: 04-Дек 06:49

Часовой пояс: UTC + 3


Вы можете начинать темы
Вы можете отвечать на сообщения
Вы не можете редактировать свои сообщения
Вы не можете удалять свои сообщения
Вы не можете голосовать в опросах
Вы не можете прикреплять файлы к сообщениям
Вы можете скачивать файлы