Джузеппе Верди - Дон Карлос / Verdi - Don Carlo (Ильдар Абдразаков / Ildar Abdrazakov, Светлана Касьян / Svetlana Kasyan, Vargas, Tezier, Barcellona) (Gianandrea Noseda / Hugo De Ana) [2013, Opera, DVDRip-AVC] Sub [Русские][Eng.]


 

[Цитировать]

-Королевский театр Турина представляет
Джузеппе Верди
10 октября (October 10,) 1813 — 27 января (January 27,) 1901
»« Дон Карлос »« Don Carlo »«
"Миланская" редакция в четырёх действиях
Либретто Жозефа Мери и Камиля дю Локля по мотивам драмы Ф. Шиллера
--
РЕЖИССЁР УГО де АНА Hugo De Ana
Год записи 2013
Год выхода: 2015
Лейбл: Opus Arte · EU
Язык: Итальянский
ПЕРЕВОД: Субтитры
Субтитры/Subtitles: РУССКИЕ, English
Продолжительность: 184 min.
ФИЛИПП II Ильдар АБДРАЗАКОВ Ildar Abdrazakov
ДОН КАРЛОС Рамон ВАРГАС Ramón Vargas
РОДРИГО, маркиз ди Поза Людовик ТЕЗЬЕ Ludovic Tézier
ВЕЛИКИЙ ИНКВИЗИТОР Марко СПОТТИ Marco Spotti
ЕЛИЗАВЕТА ВАЛУА Светлана КАСЬЯН Svetlana Kasyan
ПРИНЦЕССА ЭБОЛИ Даниэла БАРЧЕЛЛОНА Daniela Barcellona
ТИБО Соня ЧАНИ Sonia Ciani
ГРАФ ди ЛЕРМА Дарио ПРОЛА Dario Prola
КОРОЛЕВСКИЙ ГЕРОЛЬД Лука КАСАЛИН Luca Casalin
МОНАХ Роберто ТАЛЬЯВИНИ Roberto Tagliavini
ГОЛОС с НЕБА Эрика ГРИМАЛЬДИ Erika Grimaldi
ХОР и ОРКЕСТР Королевского театра Турина
ДИРИЖЁР Джанандреа НОЗЕДА Gianandrea Noseda

Качество видео: DVDRip-AVC
Исходник: DVD9+DVD5 [Спасибо, Инжир]
Контейнер: MKV
Аудио кодек: DTS
Видео поток: 720@853x480, Variable, 29,970 fps.
Аудио поток: Italian, 755 kbps, 48,0 KHz, 16 bit, 6 ch

Скриншоты

MediaInfoPart1


-

x264.log


avs [info]: 720x480p 32:27 @ 30000/1001 fps (cfr)
x264 [info]: using SAR=32/27
x264 [info]: using cpu capabilities: MMX2 SSE2Fast LZCNT
x264 [info]: profile High, level 4.1
x264 [info]: frame I:1028 Avg QP:17.81 size: 43835
x264 [info]: frame P:46449 Avg QP:19.26 size: 12052
x264 [info]: frame B:138753 Avg QP:22.41 size: 2585
x264 [info]: consecutive B-frames: 1.3% 0.8% 33.2% 19.3% 10.8% 33.9% 0.5% 0.1% 0.1%
x264 [info]: mb I I16..4: 2.4% 85.7% 11.9%
x264 [info]: mb P I16..4: 0.2% 3.2% 0.4% P16..4: 34.2% 36.4% 13.4% 0.0% 0.0% skip:12.2%
x264 [info]: mb B I16..4: 0.0% 0.1% 0.0% B16..8: 31.0% 12.8% 1.5% direct: 2.9% skip:51.7% L0:33.4% L1:48.4% BI:18.2%
x264 [info]: 8x8 transform intra:85.3% inter:58.9%
x264 [info]: coded y,uvDC,uvAC intra: 85.9% 82.4% 60.1% inter: 13.3% 12.6% 2.6%
x264 [info]: i16 v,h,dc,p: 33% 16% 14% 38%
x264 [info]: i8 v,h,dc,ddl,ddr,vr,hd,vl,hu: 18% 9% 14% 8% 9% 12% 8% 12% 11%
x264 [info]: i4 v,h,dc,ddl,ddr,vr,hd,vl,hu: 20% 6% 7% 8% 12% 17% 9% 12% 9%
x264 [info]: i8c dc,h,v,p: 36% 27% 24% 13%
x264 [info]: Weighted P-Frames: Y:4.6% UV:2.7%
x264 [info]: ref P L0: 48.0% 9.2% 19.3% 5.4% 5.2% 3.9% 3.8% 2.0% 2.1% 1.1% 0.0%
x264 [info]: ref B L0: 82.0% 11.0% 3.1% 1.4% 0.9% 0.8% 0.5% 0.2%
x264 [info]: ref B L1: 94.8% 5.2%
x264 [info]: kb/s:1240.53
-
General
Unique ID : 221743265755327186888873811045707646020 (0xA6D233159B4858EE8DB630EFB6578444)
Complete name : Verdi - Don Carlo (Torino, 2013)\Don Carlo (Torino) Pt1.mkv
Format : Matroska
Format version : Version 4 / Version 2
File size : 1.45 GiB
Duration : 1h 43mn
Overall bit rate : 1 998 Kbps
Encoded date : UTC 2016-01-28 03:39:53
Writing application : mkvmerge v8.3.0 ('Over the Horizon') 32bit
Writing library : libebml v1.3.1 + libmatroska v1.4.2
Video
ID : 1
Format : AVC
Format/Info : Advanced Video Codec
Format profile : High@L4.1
Format settings, CABAC : Yes
Format settings, ReFrames : 9 frames
Codec ID : V_MPEG4/ISO/AVC
Duration : 1h 43mn
Bit rate : 1 203 Kbps
Width : 720 pixels
Height : 480 pixels
Display aspect ratio : 16:9
Frame rate mode : Constant
Frame rate : 29.970 fps
Standard : NTSC
Color space : YUV
Chroma subsampling : 4:2:0
Bit depth : 8 bits
Scan type : Progressive
Bits/(Pixel*Frame) : 0.116
Stream size : 891 MiB (60%)
Writing library : x264 core 146 r2538 121396c
Encoding settings : cabac=1 / ref=9 / deblock=1:-3:-3 / analyse=0x3:0x113 / me=umh / subme=11 / psy=1 / psy_rd=1.05:0.15 / mixed_ref=1 / me_range=32 / chroma_me=1 / trellis=2 / 8x8dct=1 / cqm=0 / deadzone=21,11 / fast_pskip=1 / chroma_qp_offset=-3 / threads=3 / lookahead_threads=1 / sliced_threads=0 / nr=0 / decimate=1 / interlaced=0 / bluray_compat=0 / constrained_intra=0 / bframes=8 / b_pyramid=2 / b_adapt=2 / b_bias=0 / direct=1 / weightb=1 / open_gop=0 / weightp=2 / keyint=250 / keyint_min=25 / scenecut=40 / intra_refresh=0 / rc_lookahead=40 / rc=crf / mbtree=0 / crf=19.5 / qcomp=0.65 / qpmin=0 / qpmax=69 / qpstep=4 / vbv_maxrate=14000 / vbv_bufsize=14000 / crf_max=0.0 / nal_hrd=none / filler=0 / ip_ratio=1.40 / pb_ratio=1.30 / aq=1:0.90
Language : English
Default : Yes
Forced : No
Audio
ID : 2
Format : DTS
Format/Info : Digital Theater Systems
Mode : 16
Format settings, Endianness : Big
Codec ID : A_DTS
Duration : 1h 43mn
Bit rate mode : Constant
Bit rate : 755 Kbps
Channel(s) : 6 channels
Channel positions : Front: L C R, Side: L R, LFE
Sampling rate : 48.0 KHz
Bit depth : 16 bits
Compression mode : Lossy
Stream size : 559 MiB (38%)
Language : Italian
Default : Yes
Forced : No
Text #1
ID : 3
Format : ASS
Codec ID : S_TEXT/ASS
Codec ID/Info : Advanced Sub Station Alpha
Compression mode : Lossless
Language : Russian
Default : Yes
Forced : Yes
Text #2
ID : 4
Format : UTF-8
Codec ID : S_TEXT/UTF8
Codec ID/Info : UTF-8 Plain Text
Language : English
Default : No
Forced : No

Part2


-

x264.log


avs [info]: 716x480p 640:537 @ 30000/1001 fps (cfr)
x264 [info]: using SAR=640/537
x264 [info]: using cpu capabilities: MMX2 SSE2Fast LZCNT
x264 [info]: profile High, level 4.1
x264 [info]: frame I:768 Avg QP:16.99 size: 39907
x264 [info]: frame P:32845 Avg QP:18.47 size: 9668
x264 [info]: frame B:112808 Avg QP:22.03 size: 1866
x264 [info]: consecutive B-frames: 0.8% 0.5% 18.4% 22.4% 17.0% 39.0% 1.0% 0.2% 0.7%
x264 [info]: mb I I16..4: 5.1% 79.7% 15.2%
x264 [info]: mb P I16..4: 0.1% 1.7% 0.3% P16..4: 34.4% 37.0% 12.3% 0.0% 0.0% skip:14.3%
x264 [info]: mb B I16..4: 0.0% 0.1% 0.0% B16..8: 31.0% 11.5% 1.1% direct: 1.9% skip:54.4% L0:36.1% L1:50.1% BI:13.9%
x264 [info]: 8x8 transform intra:80.5% inter:56.0%
x264 [info]: coded y,uvDC,uvAC intra: 87.1% 73.3% 49.0% inter: 10.0% 7.8% 1.2%
x264 [info]: i16 v,h,dc,p: 48% 14% 14% 24%
x264 [info]: i8 v,h,dc,ddl,ddr,vr,hd,vl,hu: 15% 10% 11% 8% 10% 12% 9% 12% 12%
x264 [info]: i4 v,h,dc,ddl,ddr,vr,hd,vl,hu: 16% 9% 6% 9% 13% 15% 9% 12% 10%
x264 [info]: i8c dc,h,v,p: 30% 36% 22% 11%
x264 [info]: Weighted P-Frames: Y:4.2% UV:2.2%
x264 [info]: ref P L0: 45.7% 9.0% 18.9% 5.9% 5.7% 4.5% 4.4% 2.4% 2.9% 0.7% 0.0%
x264 [info]: ref B L0: 80.4% 11.1% 3.6% 1.6% 1.2% 1.1% 0.7% 0.3%
x264 [info]: ref B L1: 94.3% 5.7%
x264 [info]: kb/s:914.82
-
General
Unique ID : 252328239769823015829034544587252727853 (0xBDD4A6BA33CD70EC8C78E9A2D550802D)
Complete name : Verdi - Don Carlo (Torino, 2013)\Don Carlo (Torino) Pt2.mkv
Format : Matroska
Format version : Version 4 / Version 2
File size : 974 MiB
Duration : 1h 21mn
Overall bit rate : 1 672 Kbps
Encoded date : UTC 2016-01-28 03:41:44
Writing application : mkvmerge v8.3.0 ('Over the Horizon') 32bit
Writing library : libebml v1.3.1 + libmatroska v1.4.2
Video
ID : 1
Format : AVC
Format/Info : Advanced Video Codec
Format profile : High@L4.1
Format settings, CABAC : Yes
Format settings, ReFrames : 9 frames
Codec ID : V_MPEG4/ISO/AVC
Duration : 1h 21mn
Bit rate : 884 Kbps
Width : 716 pixels
Height : 480 pixels
Display aspect ratio : 16:9
Frame rate mode : Constant
Frame rate : 29.970 fps
Color space : YUV
Chroma subsampling : 4:2:0
Bit depth : 8 bits
Scan type : Progressive
Bits/(Pixel*Frame) : 0.086
Stream size : 515 MiB (53%)
Writing library : x264 core 146 r2538 121396c
Encoding settings : cabac=1 / ref=9 / deblock=1:-3:-3 / analyse=0x3:0x113 / me=umh / subme=11 / psy=1 / psy_rd=1.05:0.15 / mixed_ref=1 / me_range=32 / chroma_me=1 / trellis=2 / 8x8dct=1 / cqm=0 / deadzone=21,11 / fast_pskip=1 / chroma_qp_offset=-3 / threads=3 / lookahead_threads=1 / sliced_threads=0 / nr=0 / decimate=1 / interlaced=0 / bluray_compat=0 / constrained_intra=0 / bframes=8 / b_pyramid=2 / b_adapt=2 / b_bias=0 / direct=1 / weightb=1 / open_gop=0 / weightp=2 / keyint=250 / keyint_min=25 / scenecut=40 / intra_refresh=0 / rc_lookahead=40 / rc=crf / mbtree=0 / crf=19.5 / qcomp=0.65 / qpmin=0 / qpmax=69 / qpstep=4 / vbv_maxrate=14000 / vbv_bufsize=14000 / crf_max=0.0 / nal_hrd=none / filler=0 / ip_ratio=1.40 / pb_ratio=1.30 / aq=1:0.90
Language : English
Default : Yes
Forced : No
Audio
ID : 2
Format : DTS
Format/Info : Digital Theater Systems
Mode : 16
Format settings, Endianness : Big
Codec ID : A_DTS
Duration : 1h 21mn
Bit rate mode : Constant
Bit rate : 755 Kbps
Channel(s) : 6 channels
Channel positions : Front: L C R, Side: L R, LFE
Sampling rate : 48.0 KHz
Bit depth : 16 bits
Compression mode : Lossy
Stream size : 439 MiB (45%)
Language : Italian
Default : Yes
Forced : No
Text #1
ID : 3
Format : ASS
Codec ID : S_TEXT/ASS
Codec ID/Info : Advanced Sub Station Alpha
Compression mode : Lossless
Language : Russian
Default : Yes
Forced : Yes
Text #2
ID : 4
Format : UTF-8
Codec ID : S_TEXT/UTF8
Codec ID/Info : UTF-8 Plain Text
Language : English
Default : No
Forced : No
***"Как жаль, что жертва, плавая в крови,
Воспеть хвалу мучителю не может!.."



Показать сообщения:    

Текущее время: 04-Дек 06:50

Часовой пояс: UTC + 3


Вы не можете начинать темы
Вы не можете отвечать на сообщения
Вы не можете редактировать свои сообщения
Вы не можете удалять свои сообщения
Вы не можете голосовать в опросах
Вы не можете прикреплять файлы к сообщениям
Вы не можете скачивать файлы