Антонин Дворжак - Русалка (Рене Флеминг) / Antonin Dvorak - Rusalka (Renee Fleming, Piotr Beczala, Emily Magee, Dolora Zajick, John Relyea) (Yannick Nezet-Seguin / Otto Schenk) [2014, Opera, HDRip-AVC 720p] Sub [Русские][Eng, Fre, Ger, Kor.]


 

[Цитировать]

-«Метрополитен Опера» (сезон 2013-14) представляет
Антонин Дворжак
8 сентября (September 8,) 1841 — 1 мая (May 1,) 1904
»«Р У С А Л К А»«
Лирическая сказка в трёх действиях
по мотивам повести Фридриха Де ла Мотт-Фуке «Ундина»
--
РЕЖИССЁР ОТТО ШЕНК Otto Schenk
Год записи/выхода: 2014/2015
Лейбл/Страна: DECCA · UK
Язык: Чешский
ПЕРЕВОД: Профессиональный
Субтитры/Subtitles: РУССКИЕ,
English, French, German, Korean в составе контейнера
Продолжительность: 165 min.
РУСАЛКА Рене ФЛЕМИНГ Renée Fleming
ПРИНЦ Пётр БЕЧАЛА Piotr Beczala
БАБА ЯГА Долора ЗАЙДЖИК Dolora Zajick
ЧУЖЕЗЕМНАЯ КНЯЖНА Эмили МЕГИ Emily Magee
ВОДЯНОЙ Жон РЕЛЬЕ John Relyea
ОХОТНИК Алексей ЛАВРОВ Alexey Lavrov
ПОВАРЁНОК Жюли БУЛЬЯНН Julie Boulianne
НИМФЫ Dísella Làrusdóttir, Renée Tatum, Maya Lahyani

ХОР, ОРКЕСТР и БАЛЕТНАЯ труппа
театра "Метрополитен Опера"
ДИРИЖЁР Янник НЕЗЕ-СЕГЕН Yannick Nézet-Séguin
ХОРЕОГРАФ Кармен Де-ЛАВАЛЬЯДЕ Carmen De Lavallade

Качество видео: HDRip-AVC Исходник BDRip by Vilboa
♫ Sample ♫
Контейнер: MKV
Видео поток: H.264, 1280x720, 3659 kbps, 29,970 fps.
Аудио поток: Czech, DTS 1509 kbps, 48,0 KHz, 24 bit, 6 ch
Навигация по главам: Есть

Скриншоты

MediaInfox264.log


avs [info]: 1280x720p 1:1 @ 10000000/333667 fps (cfr)
x264 [info]: using SAR=1/1
x264 [info]: using cpu capabilities: MMX2 SSE2Fast LZCNT
x264 [info]: profile High, level 4.1
x264 [info]: frame I:1706 Avg QP:13.03 size: 78125
x264 [info]: frame P:83919 Avg QP:14.43 size: 31846
x264 [info]: frame B:212190 Avg QP:17.14 size: 8200
x264 [info]: consecutive B-frames: 3.9% 12.7% 13.1% 26.0% 7.1% 37.2%
x264 [info]: mb I I16..4: 21.0% 40.2% 38.9%
x264 [info]: mb P I16..4: 11.9% 8.8% 6.8% P16..4: 38.2% 16.8% 6.6% 0.0% 0.0% skip:11.1%
x264 [info]: mb B I16..4: 3.0% 1.8% 0.9% B16..8: 37.5% 7.6% 1.2% direct: 5.7% skip:42.2% L0:46.9% L1:41.2% BI:12.0%
x264 [info]: 8x8 transform intra:32.0% inter:33.7%
x264 [info]: coded y,uvDC,uvAC intra: 61.2% 55.5% 29.4% inter: 14.0% 17.9% 1.5%
x264 [info]: i16 v,h,dc,p: 33% 21% 32% 14%
x264 [info]: i8 v,h,dc,ddl,ddr,vr,hd,vl,hu: 19% 14% 40% 3% 4% 4% 4% 5% 7%
x264 [info]: i4 v,h,dc,ddl,ddr,vr,hd,vl,hu: 23% 13% 35% 4% 4% 5% 4% 5% 5%
x264 [info]: i8c dc,h,v,p: 34% 42% 19% 5%
x264 [info]: Weighted P-Frames: Y:1.9% UV:0.7%
x264 [info]: ref P L0: 67.9% 6.0% 13.8% 3.6% 2.5% 1.9% 1.6% 1.2% 1.2% 0.3% 0.0%
x264 [info]: ref B L0: 87.5% 8.1% 1.8% 0.9% 0.7% 0.5% 0.4% 0.2%
x264 [info]: ref B L1: 95.9% 4.1%
x264 [info]: kb/s:3659.62
-
General
Unique ID : 246159313270157036382842232081890931779 (0xB9308F2B1E3921A09CD17B7B7E43F443)
Complete name : Dvorak - Rusalka (MetOpera, 2014) HDRip 720p.mkv
Format : Matroska
Format version : Version 4 / Version 2
File size : 5.99 GiB
Duration : 2h 45mn
Overall bit rate : 5 176 Kbps
Encoded date : UTC 2016-02-04 12:08:32
Writing application : mkvmerge v8.3.0 ('Over the Horizon') 32bit
Writing library : libebml v1.3.1 + libmatroska v1.4.2
Video
ID : 1
Format : AVC
Format/Info : Advanced Video Codec
Format profile : High@L4.1
Format settings, CABAC : Yes
Format settings, ReFrames : 9 frames
Codec ID : V_MPEG4/ISO/AVC
Duration : 2h 45mn
Bit rate : 3 564 Kbps
Width : 1 280 pixels
Height : 720 pixels
Display aspect ratio : 16:9
Frame rate mode : Constant
Frame rate : 29.970 fps
Color space : YUV
Chroma subsampling : 4:2:0
Bit depth : 8 bits
Scan type : Progressive
Bits/(Pixel*Frame) : 0.129
Stream size : 4.12 GiB (69%)
Writing library : x264 core 146 r2538 121396c
Encoding settings : cabac=1 / ref=9 / deblock=1:-3:-3 / analyse=0x3:0x113 / me=umh / subme=11 / psy=1 / psy_rd=1.05:0.15 / mixed_ref=1 / me_range=32 / chroma_me=1 / trellis=2 / 8x8dct=1 / cqm=0 / deadzone=21,11 / fast_pskip=1 / chroma_qp_offset=-3 / threads=3 / lookahead_threads=1 / sliced_threads=0 / nr=0 / decimate=1 / interlaced=0 / bluray_compat=0 / constrained_intra=0 / bframes=5 / b_pyramid=2 / b_adapt=2 / b_bias=0 / direct=1 / weightb=1 / open_gop=0 / weightp=2 / keyint=250 / keyint_min=25 / scenecut=40 / intra_refresh=0 / rc_lookahead=40 / rc=crf / mbtree=0 / crf=17.0 / qcomp=0.65 / qpmin=0 / qpmax=69 / qpstep=4 / vbv_maxrate=14000 / vbv_bufsize=14000 / crf_max=0.0 / nal_hrd=none / filler=0 / ip_ratio=1.40 / pb_ratio=1.30 / aq=1:0.90
Language : English
Default : Yes
Forced : No
Audio
ID : 2
Format : DTS
Format/Info : Digital Theater Systems
Mode : 16
Format settings, Endianness : Big
Codec ID : A_DTS
Duration : 2h 45mn
Bit rate mode : Constant
Bit rate : 1 509 Kbps
Channel(s) : 6 channels
Channel positions : Front: L C R, Side: L R, LFE
Sampling rate : 48.0 KHz
Bit depth : 24 bits
Compression mode : Lossy
Stream size : 1.75 GiB (29%)
Language : Chechen
Default : Yes
Forced : No
Text #1
ID : 3
Format : VobSub
Muxing mode : zlib
Codec ID : S_VOBSUB
Codec ID/Info : Picture based subtitle format used on DVDs
Language : English
Default : No
Forced : No
Text #2
ID : 4
Format : VobSub
Muxing mode : zlib
Codec ID : S_VOBSUB
Codec ID/Info : Picture based subtitle format used on DVDs
Language : German
Default : No
Forced : No
Text #3
ID : 5
Format : VobSub
Muxing mode : zlib
Codec ID : S_VOBSUB
Codec ID/Info : Picture based subtitle format used on DVDs
Language : French
Default : No
Forced : No
Text #4
ID : 6
Format : VobSub
Muxing mode : zlib
Codec ID : S_VOBSUB
Codec ID/Info : Picture based subtitle format used on DVDs
Language : Korean
Default : No
Forced : No
Text #5
ID : 7
Format : UTF-8
Codec ID : S_TEXT/UTF8
Codec ID/Info : UTF-8 Plain Text
Language : Russian
Default : Yes
Forced : Yes
Menu
00:00:47.032 : en:Preview
00:02:33.034 : en:Overture
00:06:49.958 : en:Act 1
00:59:06.198 : en:Intermission
00:59:45.057 : en:Act 2
01:44:49.504 : en:Intermission
01:46:11.227 : en:Act 3
***“И кто дерзнёт людской любви желать,
Тот за измену должен век страдать!”



Показать сообщения:    

Текущее время: 05-Дек 13:33

Часовой пояс: UTC + 3


Вы не можете начинать темы
Вы не можете отвечать на сообщения
Вы не можете редактировать свои сообщения
Вы не можете удалять свои сообщения
Вы не можете голосовать в опросах
Вы не можете прикреплять файлы к сообщениям
Вы не можете скачивать файлы