Джузеппе Верди - Аттила / Giuseppe Verdi - Attila (Ildebrando D'Arcangelo, Simone Piazzola, Maria Jose Siri, Fabio Sartori) (Michele Mariotti / Daniele Abbado) [2016, Opera, HDTVRip-AVC 720p] Sub [Русские][Hardsub Ita.]


 

[Цитировать]

-Оперный театр Болоньи (Италия) представляет
Джузеппе Верди
10 октября (October 10,) 1813 — 27 января (January 27,) 1901
»« A Т Т И Л А »«
Либретто Темистокле Солера и Франческо Марии Пьяве
по мотивам драмы Захариаса Вернера «Аттила, царь гуннов» (1809)
--
Год записи: 2016
Лейбл: RAI CPTV, Milano & Teatro Communale di Bologna
Страна: Italy
Жанр: Live Broadcast, Opera
Язык: Итальянский
ПЕРЕВОД: Субтитры
Субтитры/Subtitles: РУССКИЕ, Hardsub Ita.
Продолжительность: 129 min.
АТТИЛА Ильдебрандо Д'АРКАНДЖЕЛО Ildebrando D'Arcangelo
ЭЦИО Симоне ПЬЯЦЦОЛА Simone Piazzola
ОДАБЕЛЛА Мария Хосе СИРИ Maria Josè Siri
ФОРЕСТО Фабио САРТОРИ Fabio Sartori
УЛЬДИНО Джанлука ФЛОРИС Gianluca Floris
ЛЕОНЕ Антонио Ди-МАТТЕО Antonio Di Matteo
ХОР и ОРКЕСТР театра Болоньи
ДИРИЖЁР Микеле МАРИОТТИ Michele Mariotti
РЕЖИССЁР Даниэле АББАДО Daniele Abbado

Качество видео: HDTVRip-AVC
Исходник: FHD [Спасибо, pbochkov]
Контейнер: MKV
Аудио кодек: AC3
Видео поток: H.264, Variable, 25,000 fps.
Аудио поток: Italian, 256 kbps, 48,0 KHz, 16 bit, 2 ch

Скриншоты

MediaInfoPart1


-

x264.log


avs [info]: 1280x720p 1:1 @ 25/1 fps (cfr)
x264 [info]: using SAR=1/1
x264 [info]: using cpu capabilities: MMX2 SSE2Fast LZCNT
x264 [info]: profile High, level 4.1
x264 [info]: frame I:539 Avg QP:17.15 size: 93017
x264 [info]: frame P:32562 Avg QP:20.17 size: 30524
x264 [info]: frame B:35551 Avg QP:22.79 size: 7458
x264 [info]: consecutive B-frames: 10.9% 50.2% 30.3% 8.7%
x264 [info]: mb I I16..4: 5.5% 71.1% 23.4%
x264 [info]: mb P I16..4: 0.8% 3.6% 0.7% P16..4: 49.4% 22.3% 14.2% 0.0% 0.0% skip: 9.0%
x264 [info]: mb B I16..4: 0.1% 0.1% 0.0% B16..8: 46.4% 5.6% 1.3% direct: 3.9% skip:42.5% L0:36.2% L1:55.9% BI: 7.9%
x264 [info]: 8x8 transform intra:70.9% inter:69.1%
x264 [info]: coded y,uvDC,uvAC intra: 68.0% 76.3% 40.3% inter: 28.9% 36.4% 1.1%
x264 [info]: i16 v,h,dc,p: 47% 19% 17% 18%
x264 [info]: i8 v,h,dc,ddl,ddr,vr,hd,vl,hu: 18% 10% 32% 5% 7% 8% 6% 7% 6%
x264 [info]: i4 v,h,dc,ddl,ddr,vr,hd,vl,hu: 26% 12% 16% 6% 10% 10% 7% 8% 6%
x264 [info]: i8c dc,h,v,p: 53% 14% 27% 6%
x264 [info]: Weighted P-Frames: Y:4.3% UV:2.5%
x264 [info]: ref P L0: 60.7% 13.5% 18.3% 7.3% 0.2%
x264 [info]: ref B L0: 82.2% 16.8% 1.0%
x264 [info]: ref B L1: 93.9% 6.1%
x264 [info]: kb/s:3814.02
-
General
Unique ID : 181213439598808612351781771130063883827 (0x88547060008796EF8DB5E4ADF7B90E33)
Complete name : Verdi - Attila (Bologna, 2016) HDTV 720p\Attila Pt1 (Prologue).mkv
Format : Matroska
Format version : Version 4 / Version 2
File size : 1.30 GiB
Duration : 45mn 46s
Overall bit rate : 4 072 Kbps
Encoded date : UTC 2016-02-01 17:16:22
Writing application : mkvmerge v8.3.0 ('Over the Horizon') 32bit
Writing library : libebml v1.3.1 + libmatroska v1.4.2
Video
ID : 1
Format : AVC
Format/Info : Advanced Video Codec
Format profile : High@L4.1
Format settings, CABAC : Yes
Format settings, ReFrames : 4 frames
Codec ID : V_MPEG4/ISO/AVC
Duration : 45mn 46s
Bit rate : 3 735 Kbps
Width : 1 280 pixels
Height : 720 pixels
Display aspect ratio : 16:9
Frame rate mode : Constant
Frame rate : 25.000 fps
Color space : YUV
Chroma subsampling : 4:2:0
Bit depth : 8 bits
Scan type : Progressive
Bits/(Pixel*Frame) : 0.162
Stream size : 1.19 GiB (92%)
Writing library : x264 core 148 r2638 7599210
Encoding settings : cabac=1 / ref=3 / deblock=1:0:0 / analyse=0x3:0x113 / me=hex / subme=7 / psy=1 / psy_rd=1.00:0.00 / mixed_ref=1 / me_range=16 / chroma_me=1 / trellis=1 / 8x8dct=1 / cqm=0 / deadzone=21,11 / fast_pskip=1 / chroma_qp_offset=-2 / threads=4 / lookahead_threads=1 / sliced_threads=0 / nr=0 / decimate=1 / interlaced=0 / bluray_compat=0 / constrained_intra=0 / bframes=3 / b_pyramid=2 / b_adapt=1 / b_bias=0 / direct=1 / weightb=1 / open_gop=0 / weightp=2 / keyint=250 / keyint_min=25 / scenecut=40 / intra_refresh=0 / rc_lookahead=40 / rc=crf / mbtree=1 / crf=20.0 / qcomp=0.60 / qpmin=0 / qpmax=69 / qpstep=4 / vbv_maxrate=62500 / vbv_bufsize=72125 / crf_max=0.0 / nal_hrd=none / filler=0 / ip_ratio=1.40 / aq=1:1.00
Default : Yes
Forced : No
Audio
ID : 2
Format : AC-3
Format/Info : Audio Coding 3
Mode extension : CM (complete main)
Format settings, Endianness : Big
Codec ID : A_AC3
Duration : 45mn 46s
Bit rate mode : Constant
Bit rate : 256 Kbps
Channel(s) : 2 channels
Channel positions : Front: L R
Sampling rate : 48.0 KHz
Compression mode : Lossy
Stream size : 83.8 MiB (6%)
Language : Italian
Default : Yes
Forced : No
Text
ID : 3
Format : ASS
Codec ID : S_TEXT/ASS
Codec ID/Info : Advanced Sub Station Alpha
Compression mode : Lossless
Language : Russian
Default : Yes
Forced : No

Part2


-

x264.log


avs [info]: 1280x720p 1:1 @ 25/1 fps (cfr)
x264 [info]: using SAR=1/1
x264 [info]: using cpu capabilities: MMX2 SSE2Fast LZCNT
x264 [info]: profile High, level 4.1
x264 [info]: frame I:284 Avg QP:16.20 size: 99296
x264 [info]: frame P:24187 Avg QP:18.66 size: 29677
x264 [info]: frame B:26886 Avg QP:20.46 size: 8526
x264 [info]: consecutive B-frames: 8.6% 56.3% 25.8% 9.3%
x264 [info]: mb I I16..4: 4.3% 74.3% 21.4%
x264 [info]: mb P I16..4: 0.7% 3.4% 0.5% P16..4: 50.8% 23.0% 13.5% 0.0% 0.0% skip: 8.1%
x264 [info]: mb B I16..4: 0.1% 0.2% 0.0% B16..8: 47.3% 5.5% 1.2% direct: 5.3% skip:40.4% L0:37.3% L1:56.0% BI: 6.7%
x264 [info]: 8x8 transform intra:73.7% inter:68.4%
x264 [info]: coded y,uvDC,uvAC intra: 69.0% 77.7% 41.8% inter: 31.2% 38.9% 1.0%
x264 [info]: i16 v,h,dc,p: 45% 17% 22% 17%
x264 [info]: i8 v,h,dc,ddl,ddr,vr,hd,vl,hu: 14% 10% 38% 5% 8% 7% 6% 6% 6%
x264 [info]: i4 v,h,dc,ddl,ddr,vr,hd,vl,hu: 22% 13% 19% 6% 10% 9% 8% 7% 6%
x264 [info]: i8c dc,h,v,p: 57% 14% 23% 5%
x264 [info]: Weighted P-Frames: Y:2.4% UV:1.0%
x264 [info]: ref P L0: 60.2% 11.1% 19.6% 8.9% 0.2%
x264 [info]: ref B L0: 77.5% 21.3% 1.2%
x264 [info]: ref B L1: 93.9% 6.1%
x264 [info]: kb/s:3797.81
-
General
Unique ID : 222929318332628478583790501016294024560 (0xA7B69FFDC34C86ED847ED525A6466570)
Complete name : Verdi - Attila (Bologna, 2016) HDTV 720p\Attila Pt2 (Atto Primo).mkv
Format : Matroska
Format version : Version 4 / Version 2
File size : 993 MiB
Duration : 34mn 14s
Overall bit rate : 4 056 Kbps
Encoded date : UTC 2016-02-01 17:17:39
Writing application : mkvmerge v8.3.0 ('Over the Horizon') 32bit
Writing library : libebml v1.3.1 + libmatroska v1.4.2
Video
ID : 1
Format : AVC
Format/Info : Advanced Video Codec
Format profile : High@L4.1
Format settings, CABAC : Yes
Format settings, ReFrames : 4 frames
Codec ID : V_MPEG4/ISO/AVC
Duration : 34mn 14s
Bit rate : 3 719 Kbps
Width : 1 280 pixels
Height : 720 pixels
Display aspect ratio : 16:9
Frame rate mode : Constant
Frame rate : 25.000 fps
Color space : YUV
Chroma subsampling : 4:2:0
Bit depth : 8 bits
Scan type : Progressive
Bits/(Pixel*Frame) : 0.161
Stream size : 911 MiB (92%)
Writing library : x264 core 148 r2638 7599210
Encoding settings : cabac=1 / ref=3 / deblock=1:0:0 / analyse=0x3:0x113 / me=hex / subme=7 / psy=1 / psy_rd=1.00:0.00 / mixed_ref=1 / me_range=16 / chroma_me=1 / trellis=1 / 8x8dct=1 / cqm=0 / deadzone=21,11 / fast_pskip=1 / chroma_qp_offset=-2 / threads=4 / lookahead_threads=1 / sliced_threads=0 / nr=0 / decimate=1 / interlaced=0 / bluray_compat=0 / constrained_intra=0 / bframes=3 / b_pyramid=2 / b_adapt=1 / b_bias=0 / direct=1 / weightb=1 / open_gop=0 / weightp=2 / keyint=250 / keyint_min=25 / scenecut=40 / intra_refresh=0 / rc_lookahead=40 / rc=crf / mbtree=1 / crf=19.0 / qcomp=0.60 / qpmin=0 / qpmax=69 / qpstep=4 / vbv_maxrate=62500 / vbv_bufsize=72125 / crf_max=0.0 / nal_hrd=none / filler=0 / ip_ratio=1.40 / aq=1:1.00
Default : Yes
Forced : No
Audio
ID : 2
Format : AC-3
Format/Info : Audio Coding 3
Mode extension : CM (complete main)
Format settings, Endianness : Big
Codec ID : A_AC3
Duration : 34mn 14s
Bit rate mode : Constant
Bit rate : 256 Kbps
Channel(s) : 2 channels
Channel positions : Front: L R
Sampling rate : 48.0 KHz
Compression mode : Lossy
Stream size : 62.7 MiB (6%)
Language : Italian
Default : Yes
Forced : No
Text
ID : 3
Format : ASS
Codec ID : S_TEXT/ASS
Codec ID/Info : Advanced Sub Station Alpha
Compression mode : Lossless
Language : Russian
Default : Yes
Forced : No

Part3


-

x264.log


avs [info]: 1280x720p 1:1 @ 25/1 fps (cfr)
x264 [info]: using SAR=1/1
x264 [info]: using cpu capabilities: MMX2 SSE2Fast LZCNT
x264 [info]: profile High, level 4.1
x264 [info]: frame I:254 Avg QP:16.95 size: 87712
x264 [info]: frame P:18569 Avg QP:19.53 size: 25522
x264 [info]: frame B:21824 Avg QP:21.56 size: 6825
x264 [info]: consecutive B-frames: 8.1% 51.0% 29.3% 11.5%
x264 [info]: mb I I16..4: 5.0% 72.9% 22.1%
x264 [info]: mb P I16..4: 0.8% 3.4% 0.7% P16..4: 51.5% 20.8% 12.8% 0.0% 0.0% skip: 9.9%
x264 [info]: mb B I16..4: 0.1% 0.1% 0.0% B16..8: 47.3% 4.7% 1.0% direct: 3.7% skip:43.1% L0:37.7% L1:56.7% BI: 5.6%
x264 [info]: 8x8 transform intra:69.9% inter:73.2%
x264 [info]: coded y,uvDC,uvAC intra: 66.4% 76.6% 40.8% inter: 26.4% 36.7% 0.7%
x264 [info]: i16 v,h,dc,p: 48% 18% 17% 17%
x264 [info]: i8 v,h,dc,ddl,ddr,vr,hd,vl,hu: 19% 10% 32% 5% 7% 8% 6% 8% 6%
x264 [info]: i4 v,h,dc,ddl,ddr,vr,hd,vl,hu: 27% 12% 16% 6% 9% 10% 7% 8% 5%
x264 [info]: i8c dc,h,v,p: 54% 14% 26% 6%
x264 [info]: Weighted P-Frames: Y:3.3% UV:2.1%
x264 [info]: ref P L0: 60.7% 10.9% 19.6% 8.6% 0.1%
x264 [info]: ref B L0: 79.2% 19.5% 1.3%
x264 [info]: ref B L1: 93.8% 6.2%
x264 [info]: kb/s:3174.38
-
General
Unique ID : 180716432288454245062451189316688260177 (0x87F4B805D06954D1AB4A24A022FFAC51)
Complete name : Verdi - Attila (Bologna, 2016) HDTV 720p\Attila Pt3 (Atto Secondo).mkv
Format : Matroska
Format version : Version 4 / Version 2
File size : 665 MiB
Duration : 27mn 5s
Overall bit rate : 3 432 Kbps
Encoded date : UTC 2016-02-01 17:18:47
Writing application : mkvmerge v8.3.0 ('Over the Horizon') 32bit
Writing library : libebml v1.3.1 + libmatroska v1.4.2
Video
ID : 1
Format : AVC
Format/Info : Advanced Video Codec
Format profile : High@L4.1
Format settings, CABAC : Yes
Format settings, ReFrames : 4 frames
Codec ID : V_MPEG4/ISO/AVC
Duration : 27mn 5s
Bit rate : 3 108 Kbps
Width : 1 280 pixels
Height : 720 pixels
Display aspect ratio : 16:9
Frame rate mode : Constant
Frame rate : 25.000 fps
Color space : YUV
Chroma subsampling : 4:2:0
Bit depth : 8 bits
Scan type : Progressive
Bits/(Pixel*Frame) : 0.135
Stream size : 602 MiB (91%)
Writing library : x264 core 148 r2638 7599210
Encoding settings : cabac=1 / ref=3 / deblock=1:0:0 / analyse=0x3:0x113 / me=hex / subme=7 / psy=1 / psy_rd=1.00:0.00 / mixed_ref=1 / me_range=16 / chroma_me=1 / trellis=1 / 8x8dct=1 / cqm=0 / deadzone=21,11 / fast_pskip=1 / chroma_qp_offset=-2 / threads=4 / lookahead_threads=1 / sliced_threads=0 / nr=0 / decimate=1 / interlaced=0 / bluray_compat=0 / constrained_intra=0 / bframes=3 / b_pyramid=2 / b_adapt=1 / b_bias=0 / direct=1 / weightb=1 / open_gop=0 / weightp=2 / keyint=250 / keyint_min=25 / scenecut=40 / intra_refresh=0 / rc_lookahead=40 / rc=crf / mbtree=1 / crf=19.8 / qcomp=0.60 / qpmin=0 / qpmax=69 / qpstep=4 / vbv_maxrate=62500 / vbv_bufsize=72125 / crf_max=0.0 / nal_hrd=none / filler=0 / ip_ratio=1.40 / aq=1:1.00
Default : Yes
Forced : No
Audio
ID : 2
Format : AC-3
Format/Info : Audio Coding 3
Mode extension : CM (complete main)
Format settings, Endianness : Big
Codec ID : A_AC3
Duration : 27mn 5s
Bit rate mode : Constant
Bit rate : 256 Kbps
Channel(s) : 2 channels
Channel positions : Front: L R
Sampling rate : 48.0 KHz
Compression mode : Lossy
Stream size : 49.6 MiB (7%)
Language : Italian
Default : Yes
Forced : No
Text
ID : 3
Format : ASS
Codec ID : S_TEXT/ASS
Codec ID/Info : Advanced Sub Station Alpha
Compression mode : Lossless
Language : Russian
Default : Yes
Forced : No

Part4


-

x264.log


avs [info]: 1280x720p 1:1 @ 25/1 fps (cfr)
x264 [info]: using SAR=1/1
x264 [info]: using cpu capabilities: MMX2 SSE2Fast LZCNT
x264 [info]: profile High, level 4.1
x264 [info]: frame I:187 Avg QP:17.77 size:100974
x264 [info]: frame P:6883 Avg QP:19.17 size: 36592
x264 [info]: frame B:26449 Avg QP:21.83 size: 9950
x264 [info]: consecutive B-frames: 1.0% 1.5% 8.7% 15.8% 10.1% 62.0% 0.9%
x264 [info]: mb I I16..4: 4.7% 80.3% 15.0%
x264 [info]: mb P I16..4: 0.4% 7.6% 1.1% P16..4: 35.3% 38.2% 10.9% 0.0% 0.0% skip: 6.6%
x264 [info]: mb B I16..4: 0.0% 0.5% 0.1% B16..8: 35.0% 15.6% 2.0% direct: 5.3% skip:41.5% L0:39.5% L1:49.2% BI:11.3%
x264 [info]: 8x8 transform intra:82.6% inter:59.3%
x264 [info]: coded y,uvDC,uvAC intra: 90.2% 75.8% 36.1% inter: 19.8% 17.7% 0.8%
x264 [info]: i16 v,h,dc,p: 32% 15% 10% 43%
x264 [info]: i8 v,h,dc,ddl,ddr,vr,hd,vl,hu: 10% 6% 6% 10% 14% 15% 13% 13% 12%
x264 [info]: i4 v,h,dc,ddl,ddr,vr,hd,vl,hu: 16% 7% 6% 8% 14% 15% 12% 11% 11%
x264 [info]: i8c dc,h,v,p: 33% 23% 24% 21%
x264 [info]: Weighted P-Frames: Y:3.7% UV:2.2%
x264 [info]: ref P L0: 41.6% 8.7% 19.4% 7.0% 6.8% 5.0% 5.0% 2.8% 3.1% 0.4% 0.0%
x264 [info]: ref B L0: 83.1% 8.3% 2.9% 1.9% 1.5% 1.2% 0.7% 0.4%
x264 [info]: ref B L1: 95.9% 4.1%
x264 [info]: kb/s:3185.80
-
General
Unique ID : 246332268245786764371239968609399427762 (0xB951DE81D0F69FACA131D2831DEB52B2)
Complete name : Verdi - Attila (Bologna, 2016) HDTV 720p\Attila Pt4 (Atto Terzo).mkv
Format : Matroska
Format version : Version 4 / Version 2
File size : 550 MiB
Duration : 22mn 20s
Overall bit rate : 3 444 Kbps
Encoded date : UTC 2016-02-01 17:19:50
Writing application : mkvmerge v8.3.0 ('Over the Horizon') 32bit
Writing library : libebml v1.3.1 + libmatroska v1.4.2
Video
ID : 1
Format : AVC
Format/Info : Advanced Video Codec
Format profile : High@L4.1
Format settings, CABAC : Yes
Format settings, ReFrames : 9 frames
Codec ID : V_MPEG4/ISO/AVC
Duration : 22mn 20s
Bit rate : 3 119 Kbps
Width : 1 280 pixels
Height : 720 pixels
Display aspect ratio : 16:9
Frame rate mode : Constant
Frame rate : 25.000 fps
Color space : YUV
Chroma subsampling : 4:2:0
Bit depth : 8 bits
Scan type : Progressive
Bits/(Pixel*Frame) : 0.135
Stream size : 499 MiB (91%)
Writing library : x264 core 146 r2538 121396c
Encoding settings : cabac=1 / ref=9 / deblock=1:-3:-3 / analyse=0x3:0x113 / me=umh / subme=11 / psy=1 / psy_rd=1.05:0.15 / mixed_ref=1 / me_range=32 / chroma_me=1 / trellis=2 / 8x8dct=1 / cqm=0 / deadzone=21,11 / fast_pskip=1 / chroma_qp_offset=-3 / threads=3 / lookahead_threads=1 / sliced_threads=0 / nr=0 / decimate=1 / interlaced=0 / bluray_compat=0 / constrained_intra=0 / bframes=6 / b_pyramid=2 / b_adapt=2 / b_bias=0 / direct=1 / weightb=1 / open_gop=0 / weightp=2 / keyint=250 / keyint_min=25 / scenecut=40 / intra_refresh=0 / rc_lookahead=40 / rc=crf / mbtree=0 / crf=19.7 / qcomp=0.65 / qpmin=0 / qpmax=69 / qpstep=4 / vbv_maxrate=14000 / vbv_bufsize=14000 / crf_max=0.0 / nal_hrd=none / filler=0 / ip_ratio=1.40 / pb_ratio=1.30 / aq=1:0.90
Default : Yes
Forced : No
Audio
ID : 2
Format : AC-3
Format/Info : Audio Coding 3
Mode extension : CM (complete main)
Format settings, Endianness : Big
Codec ID : A_AC3
Duration : 22mn 20s
Bit rate mode : Constant
Bit rate : 256 Kbps
Channel(s) : 2 channels
Channel positions : Front: L R
Sampling rate : 48.0 KHz
Compression mode : Lossy
Stream size : 40.9 MiB (7%)
Language : Italian
Default : Yes
Forced : No
Text
ID : 3
Format : ASS
Codec ID : S_TEXT/ASS
Codec ID/Info : Advanced Sub Station Alpha
Compression mode : Lossless
Language : Russian
Default : Yes
Forced : No
***"Men followed... Women worshiped... Rome trembled..."



Показать сообщения:    

Текущее время: 03-Дек 07:41

Часовой пояс: UTC + 3


Вы не можете начинать темы
Вы не можете отвечать на сообщения
Вы не можете редактировать свои сообщения
Вы не можете удалять свои сообщения
Вы не можете голосовать в опросах
Вы не можете прикреплять файлы к сообщениям
Вы не можете скачивать файлы