Россини - Золушка / Rossini - La Cenerentola (Serena Malfi, Francisco Gatell, Alessandro Corbelli, Vito Priante) (Alejo Perez / Emma Dante) [2016, Opera, HDTVRip-AVC 720p] Sub [Русские][Eng, Fre, Ger, Ita, Esp.] (bonus • Elena-Rybka)


 

[Цитировать]

-Римский оперный театр, в рамках проекта “Rossini a Roma 200 anni”, представляет
Джоаккино Россини
29 февраля (February, 29) 1792 — 13 ноября (November, 13) 1868
»«З О Л У Ш К А»«
Либретто Якопо Ферретти (1784 – 1852) по мотивам сказочного эпоса
--

РЕЖИССЁР ЭММА ДАНТЕ Emma Dante
Год записи 2016
Жанр: Live Broadcast, Opera
Язык: Итальянский
ПЕРЕВОД Профессиональный со вставками любительского
Субтитры/Subtitles: РУССКИЕ,
English, French, German, Italian, Espanol
Продолжительность: 163 min.
ЗОЛУШКА Серена МАЛЬФИ Serena Malfi
ПРИНЦ РАМИРО Хуан Франсиско ГАТЕЛЬ Juan Francisco Gatell
ДАНДИНИ Вито ПРИАНТЕ Vito Priante
АЛИДОРО Уго ГУАЛЬЯРДО Ugo Guagiardo
ДОН МАНЬИФИКО Алессандро КОРБЕЛЛИ Alessandro Corbelli
КЛОРИНДА Дамиана МИЦЦИ Damiana Mizzi
ТИСБА Аннунциата ВЕСТРИ Annunziata Vestri

ХОР и ОРКЕСТР Римского оперного театра
ДИРИЖЁР
АЛЕХО ПЕРЕС Alejo Pérez
Качество видео: HDTVRip-AVC
♫ Trailer ♫
Исходник: FHD [Спасибо, ginofamussa]
Формат/Контейнер: MKV
Видео кодек: H.264
Аудио кодек: AC3
Видео поток: 1280x720, Variable, 25,000 fps.
Аудио поток: Italian, 448 kbps, 48,0 KHz, 16 bit, 6 ch

Скриншоты

MediaInfoPart1


-

x264.log


avs [info]: 1280x720p 1:1 @ 25/1 fps (cfr)
x264 [info]: using SAR=1/1
x264 [info]: using cpu capabilities: MMX2 SSE2Fast LZCNT
x264 [info]: profile High, level 4.1
x264 [info]: frame I:1038 Avg QP:18.03 size: 91286
x264 [info]: frame P:73380 Avg QP:21.05 size: 29996
x264 [info]: frame B:77559 Avg QP:23.10 size: 10074
x264 [info]: consecutive B-frames: 12.7% 52.1% 17.2% 18.0%
x264 [info]: mb I I16..4: 8.0% 61.2% 30.7%
x264 [info]: mb P I16..4: 0.5% 4.7% 1.2% P16..4: 44.1% 21.5% 13.5% 0.0% 0.0% skip:14.4%
x264 [info]: mb B I16..4: 0.0% 0.4% 0.1% B16..8: 48.7% 7.4% 1.7% direct: 2.9% skip:38.6% L0:39.9% L1:50.5% BI: 9.6%
x264 [info]: 8x8 transform intra:70.6% inter:71.3%
x264 [info]: coded y,uvDC,uvAC intra: 82.1% 76.6% 48.8% inter: 29.3% 24.8% 2.5%
x264 [info]: i16 v,h,dc,p: 46% 19% 10% 25%
x264 [info]: i8 v,h,dc,ddl,ddr,vr,hd,vl,hu: 22% 12% 21% 5% 7% 10% 6% 9% 7%
x264 [info]: i4 v,h,dc,ddl,ddr,vr,hd,vl,hu: 29% 15% 11% 5% 9% 11% 7% 8% 5%
x264 [info]: i8c dc,h,v,p: 49% 19% 24% 9%
x264 [info]: Weighted P-Frames: Y:1.9% UV:0.6%
x264 [info]: ref P L0: 58.5% 13.8% 19.5% 8.2% 0.1%
x264 [info]: ref B L0: 75.7% 22.0% 2.3%
x264 [info]: ref B L1: 94.5% 5.5%
x264 [info]: kb/s:4049.52
-
General
Unique ID : 224677827490507151133352675655220338913 (0xA907602609392F9D817C3210C0AA20E1)
Complete name : Rossini - La Cenerentola (Roma, 2016)\La Cenerentola (Opera di Roma) Pt1.mkv
Format : Matroska
Format version : Version 4 / Version 2
File size : 3.18 GiB
Duration : 1h 41mn
Overall bit rate : 4 500 Kbps
Encoded date : UTC 2016-01-28 21:53:40
Writing application : mkvmerge v8.3.0 ('Over the Horizon') 32bit
Writing library : libebml v1.3.1 + libmatroska v1.4.2
Video
ID : 1
Format : AVC
Format/Info : Advanced Video Codec
Format profile : High@L4.1
Format settings, CABAC : Yes
Format settings, ReFrames : 4 frames
Codec ID : V_MPEG4/ISO/AVC
Duration : 1h 41mn
Bit rate : 3 962 Kbps
Width : 1 280 pixels
Height : 720 pixels
Display aspect ratio : 16:9
Frame rate mode : Constant
Frame rate : 25.000 fps
Color space : YUV
Chroma subsampling : 4:2:0
Bit depth : 8 bits
Scan type : Progressive
Bits/(Pixel*Frame) : 0.172
Stream size : 2.80 GiB (88%)
Writing library : x264 core 148 r2638 7599210
Encoding settings : cabac=1 / ref=3 / deblock=1:0:0 / analyse=0x3:0x113 / me=hex / subme=7 / psy=1 / psy_rd=1.00:0.00 / mixed_ref=1 / me_range=16 / chroma_me=1 / trellis=1 / 8x8dct=1 / cqm=0 / deadzone=21,11 / fast_pskip=1 / chroma_qp_offset=-2 / threads=4 / lookahead_threads=1 / sliced_threads=0 / nr=0 / decimate=1 / interlaced=0 / bluray_compat=0 / constrained_intra=0 / bframes=3 / b_pyramid=2 / b_adapt=1 / b_bias=0 / direct=1 / weightb=1 / open_gop=0 / weightp=2 / keyint=250 / keyint_min=25 / scenecut=40 / intra_refresh=0 / rc_lookahead=40 / rc=crf / mbtree=1 / crf=19.8 / qcomp=0.60 / qpmin=0 / qpmax=69 / qpstep=4 / vbv_maxrate=62500 / vbv_bufsize=72125 / crf_max=0.0 / nal_hrd=none / filler=0 / ip_ratio=1.40 / aq=1:1.00
Default : Yes
Forced : No
Audio
ID : 2
Format : AC-3
Format/Info : Audio Coding 3
Mode extension : CM (complete main)
Format settings, Endianness : Big
Codec ID : A_AC3
Duration : 1h 41mn
Bit rate mode : Constant
Bit rate : 448 Kbps
Channel(s) : 6 channels
Channel positions : Front: L C R, Side: L R, LFE
Sampling rate : 48.0 KHz
Compression mode : Lossy
Delay relative to video : 20ms
Stream size : 325 MiB (10%)
Language : Italian
Default : Yes
Forced : No
Text #1
ID : 3
Format : UTF-8
Codec ID : S_TEXT/UTF8
Codec ID/Info : UTF-8 Plain Text
Language : English
Default : No
Forced : No
Text #2
ID : 4
Format : UTF-8
Codec ID : S_TEXT/UTF8
Codec ID/Info : UTF-8 Plain Text
Language : French
Default : No
Forced : No
Text #3
ID : 5
Format : UTF-8
Codec ID : S_TEXT/UTF8
Codec ID/Info : UTF-8 Plain Text
Language : German
Default : No
Forced : No
Text #4
ID : 6
Format : UTF-8
Codec ID : S_TEXT/UTF8
Codec ID/Info : UTF-8 Plain Text
Language : Italian
Default : No
Forced : No
Text #5
ID : 7
Format : UTF-8
Codec ID : S_TEXT/UTF8
Codec ID/Info : UTF-8 Plain Text
Language : Spanish
Default : No
Forced : No
Text #6
ID : 8
Format : UTF-8
Codec ID : S_TEXT/UTF8
Codec ID/Info : UTF-8 Plain Text
Language : Russian
Default : Yes
Forced : Yes

Part2


-

x264.log


avs [info]: 1280x720p 1:1 @ 25/1 fps (cfr)
x264 [info]: using SAR=1/1
x264 [info]: using cpu capabilities: MMX2 SSE2Fast LZCNT
x264 [info]: profile High, level 4.1
x264 [info]: frame I:652 Avg QP:18.00 size: 86930
x264 [info]: frame P:45381 Avg QP:21.03 size: 29805
x264 [info]: frame B:47442 Avg QP:23.06 size: 10038
x264 [info]: consecutive B-frames: 12.3% 54.0% 18.6% 15.2%
x264 [info]: mb I I16..4: 8.2% 63.4% 28.4%
x264 [info]: mb P I16..4: 0.7% 4.9% 1.2% P16..4: 44.7% 21.4% 13.6% 0.0% 0.0% skip:13.5%
x264 [info]: mb B I16..4: 0.1% 0.4% 0.1% B16..8: 49.2% 7.5% 1.6% direct: 3.1% skip:38.0% L0:40.0% L1:50.6% BI: 9.5%
x264 [info]: 8x8 transform intra:70.6% inter:71.4%
x264 [info]: coded y,uvDC,uvAC intra: 79.0% 77.9% 49.9% inter: 30.2% 26.2% 2.9%
x264 [info]: i16 v,h,dc,p: 44% 23% 9% 24%
x264 [info]: i8 v,h,dc,ddl,ddr,vr,hd,vl,hu: 23% 12% 23% 5% 7% 9% 6% 9% 6%
x264 [info]: i4 v,h,dc,ddl,ddr,vr,hd,vl,hu: 30% 16% 12% 5% 8% 10% 6% 8% 5%
x264 [info]: i8c dc,h,v,p: 48% 20% 24% 9%
x264 [info]: Weighted P-Frames: Y:2.1% UV:0.9%
x264 [info]: ref P L0: 58.2% 13.7% 19.7% 8.3% 0.1%
x264 [info]: ref B L0: 75.1% 22.6% 2.2%
x264 [info]: ref B L1: 94.5% 5.5%
x264 [info]: kb/s:4034.13
-
General
Unique ID : 195974294319851081620503033552098072424 (0x936F46B379ADBFF0A9D4632358B89768)
Complete name : Rossini - La Cenerentola (Roma, 2016)\La Cenerentola (Opera di Roma) Pt2.mkv
Format : Matroska
Format version : Version 4 / Version 2
File size : 1.95 GiB
Duration : 1h 2mn
Overall bit rate : 4 484 Kbps
Encoded date : UTC 2016-01-28 20:04:09
Writing application : mkvmerge v8.3.0 ('Over the Horizon') 32bit
Writing library : libebml v1.3.1 + libmatroska v1.4.2
Video
ID : 1
Format : AVC
Format/Info : Advanced Video Codec
Format profile : High@L4.1
Format settings, CABAC : Yes
Format settings, ReFrames : 4 frames
Codec ID : V_MPEG4/ISO/AVC
Duration : 1h 2mn
Bit rate : 3 947 Kbps
Width : 1 280 pixels
Height : 720 pixels
Display aspect ratio : 16:9
Frame rate mode : Constant
Frame rate : 25.000 fps
Color space : YUV
Chroma subsampling : 4:2:0
Bit depth : 8 bits
Scan type : Progressive
Bits/(Pixel*Frame) : 0.171
Stream size : 1.72 GiB (88%)
Writing library : x264 core 148 r2638 7599210
Encoding settings : cabac=1 / ref=3 / deblock=1:0:0 / analyse=0x3:0x113 / me=hex / subme=7 / psy=1 / psy_rd=1.00:0.00 / mixed_ref=1 / me_range=16 / chroma_me=1 / trellis=1 / 8x8dct=1 / cqm=0 / deadzone=21,11 / fast_pskip=1 / chroma_qp_offset=-2 / threads=4 / lookahead_threads=1 / sliced_threads=0 / nr=0 / decimate=1 / interlaced=0 / bluray_compat=0 / constrained_intra=0 / bframes=3 / b_pyramid=2 / b_adapt=1 / b_bias=0 / direct=1 / weightb=1 / open_gop=0 / weightp=2 / keyint=250 / keyint_min=25 / scenecut=40 / intra_refresh=0 / rc_lookahead=40 / rc=crf / mbtree=1 / crf=19.8 / qcomp=0.60 / qpmin=0 / qpmax=69 / qpstep=4 / vbv_maxrate=62500 / vbv_bufsize=72125 / crf_max=0.0 / nal_hrd=none / filler=0 / ip_ratio=1.40 / aq=1:1.00
Default : Yes
Forced : No
Audio
ID : 2
Format : AC-3
Format/Info : Audio Coding 3
Mode extension : CM (complete main)
Format settings, Endianness : Big
Codec ID : A_AC3
Duration : 1h 2mn
Bit rate mode : Constant
Bit rate : 448 Kbps
Channel(s) : 6 channels
Channel positions : Front: L C R, Side: L R, LFE
Sampling rate : 48.0 KHz
Compression mode : Lossy
Stream size : 200 MiB (10%)
Language : Italian
Default : Yes
Forced : No
Text #1
ID : 3
Format : UTF-8
Codec ID : S_TEXT/UTF8
Codec ID/Info : UTF-8 Plain Text
Language : Russian
Default : Yes
Forced : Yes
Text #2
ID : 4
Format : UTF-8
Codec ID : S_TEXT/UTF8
Codec ID/Info : UTF-8 Plain Text
Language : English
Default : No
Forced : No
Text #3
ID : 5
Format : UTF-8
Codec ID : S_TEXT/UTF8
Codec ID/Info : UTF-8 Plain Text
Language : French
Default : No
Forced : No
Text #4
ID : 6
Format : UTF-8
Codec ID : S_TEXT/UTF8
Codec ID/Info : UTF-8 Plain Text
Language : German
Default : No
Forced : No
Text #5
ID : 7
Format : UTF-8
Codec ID : S_TEXT/UTF8
Codec ID/Info : UTF-8 Plain Text
Language : Italian
Default : No
Forced : No
Text #6
ID : 8
Format : UTF-8
Codec ID : S_TEXT/UTF8
Codec ID/Info : UTF-8 Plain Text
Language : Spanish
Default : No
Forced : No

Documentary

ПЕРЕВОД © Elena-Rybka
Продолжительность: 11 min.
Язык: Итальянский
Субтитры/Subtitles: Eng, Ger, Fre, Esp.
РУССКИЕ отдельным файлом → https://yadi.sk/d/PiywZkV1nzzsg

Видео поток: H.264, 1280x720, 3984 kbps, 25,000 fps.
Аудио поток: Italian, AC3 448 kbps, 48,0 KHz, 16 bit, 6 ch
Внимание! В интервале 00:03:07-00:03:33 пропадает звук.



Показать сообщения:    

Текущее время: 09-Дек 18:34

Часовой пояс: UTC + 3


Вы не можете начинать темы
Вы не можете отвечать на сообщения
Вы не можете редактировать свои сообщения
Вы не можете удалять свои сообщения
Вы не можете голосовать в опросах
Вы не можете прикреплять файлы к сообщениям
Вы не можете скачивать файлы