Новеченто (1900-й) (Алексей Кужельный) [2016 г., Украина, монолог, TVRip] Киевская академическая мастерская театрального искусства "Сузирья"


 

[Цитировать]

Новеченто (1900-й) Название театра: Киевская академическая мастерская театрального искусства "Сузирья".
Год выпуска: 2016.
Страна: Украина .
Жанр: монолог.
Продолжительность: 01:19:49.
Язык: Русский.
Автор спектакля: заслуженный деятель искусств Украины, народный артист Украины Алексей Кужельный.
Исполнитель: Станислав Мельник.
О спектакле:
Молодой энергичный ученый-энтомолог путешествует в пустыне, собирая редкие виды насекомых. Волей судьбы он оказался гостем одинокой женщины, живущей в хижине на дне песочной ямы. Спустившись по веревочной лестнице в распростертые объятия радушной хозяйки, беззаботный странник еще не подозревает о том, что назад дороги не будет, - на следующее утро лестница волшебным образом исчезает. В панике пытается он выбраться наверх. Но тщетно — песок осыпается под его ногами. Энтомолог наблюдает за тем, как женщина непрестанно набирает песок в ведра, которые местные жители поднимают наверх. Если этого не делать, не будет пищи, а дом превратится в дюну. Постепенно мужчина вникает в жизненные устои, существующие внутри ямы. Честолюбивые планы его больше не волнуют, он смиряется со своей судьбой и учится радоваться жизни в замкнутом пространстве любви.
Лаконичная режиссура соединяет восточные и западные традиции в эмоционально-пластическую модель вечного конфликта мужского и женского начал. При этом вопросов намного больше, чем ответов. Манера игры актеров (Сергей Мельник, Ирина Калашникова) подчеркивает вневременной характер происходящего: по мере развития отношений между героями их движения синхронизируются, подчиняясь простым бытовым, физическим и эмоциональным потребностям. Жизнь женщины и мужчины становится похожа на ритуальный танец.

Дополнительная информация:
Выпущено: Киевская академическая мастерская театрального искусства "Сузирья", ГТРК "Культура".
Автор: Аллесандро Барикко.
Хореограф: Алексей Скляренко.
Композитор: Андрей Шусть.
Художник по свету: Дмитрий Захоженко.
Художественный руководитель театра: заслуженный деятель искусств Украины, народный артист Украины Алексей Кужельный.

О спектакле.
Релиз
Рип sharky.

Качество видео:...TVRip
Формат:.................AVI
Видео:..704x528 (1.33:1), 25 fps, XviD build 50 ~1749 kbps avg, 0.19 bit/pixel
Аудио:..48 kHz, AC3 Dolby Digital, 2/0 (L,R) ch, ~192 kbps

Отчет Media Info

General
Complete name : Novechento.1900_Kievskaya.AMTI.Suzir'ya.2016.XviD.TVRip.fenixclub.avi
Format : AVI
Format/Info : Audio Video Interleave
File size : 1.09 GiB
Duration : 1h 19mn
Overall bit rate : 1 952 Kbps
Writing application : VirtualDubMod 1.5.10.3 | www.virtualdub-fr.org || (build 2550/release)
Writing library : VirtualDubMod build 2550/release
Video
ID : 0
Format : MPEG-4 Visual
Format profile : Advanced Simple@L5
Format settings, BVOP : 1
Format settings, QPel : No
Format settings, GMC : No warppoints
Format settings, Matrix : Default (H.263)
Codec ID : XVID
Codec ID/Hint : XviD
Duration : 1h 19mn
Bit rate : 1 750 Kbps
Width : 704 pixels
Height : 528 pixels
Display aspect ratio : 4:3
Frame rate : 25.000 fps
Color space : YUV
Chroma subsampling : 4:2:0
Bit depth : 8 bits
Scan type : Progressive
Compression mode : Lossy
Bits/(Pixel*Frame) : 0.188
Stream size : 999 MiB (90%)
Writing library : XviD 1.2.1 (UTC 2008-12-04)
Audio
ID : 1
Format : AC-3
Format/Info : Audio Coding 3
Mode extension : CM (complete main)
Format settings, Endianness : Big
Codec ID : 2000
Duration : 1h 19mn
Bit rate mode : Constant
Bit rate : 192 Kbps
Channel(s) : 2 channels
Channel positions : Front: L R
Sampling rate : 48.0 KHz
Compression mode : Lossy
Stream size : 110 MiB (10%)
Alignment : Split accross interleaves
Interleave, duration : 40 ms (1.00 video frame)
Interleave, preload duratio : 500 ms.

Скриншоты


Альтернативный хост





Показать сообщения:    

Текущее время: 09-Дек 01:03

Часовой пояс: UTC + 3


Вы не можете начинать темы
Вы не можете отвечать на сообщения
Вы не можете редактировать свои сообщения
Вы не можете удалять свои сообщения
Вы не можете голосовать в опросах
Вы не можете прикреплять файлы к сообщениям
Вы не можете скачивать файлы