Гости (Игорь Селин) [2013 г., скандальный, SATRip] Другой театр


 

[Цитировать]

Гости Название театра: Другой театр.
Год выпуска: 2013.
Жанр: скандальный.
Продолжительность: 01:36:05.
Режиссер: Игорь Селин.
В ролях:
Михаил Фатеев, Эд Двинских, Альбина Тиханова, Константин Чепурин, Светлана Богацкая/Татьяна Рыбинец /Валерия Яковлева, Олеся Быкодерова, Клаудиа Бочар, Роман Хардиков, Михаил Стародубов.
О спектакле:
Оливер Буковски - провокационный автор не только для российского зрителя. Во многих странах именно эта пьеса ("Гости") была запрещена к постановке из-за своей жестокости и физиологичной откровенности. О. Буковски поднимает достаточно сложные темы. Надрывы во взаимоотношениях между мужчиной и женщиной, болезненные сплетения человеческих судеб, глубокие душевные переживания - вот те мотивы, которые звучат в его пьесе, и звучат достаточно явственно.
«Гости» - многонаселенная пьеса. Она трагичная и комичная одновременно. С одной стороны, мы вроде бы улыбаемся, шутим, смеемся. Но с другой стороны, в то же самое время переступаем через людей, давим их, ломаем, совершенно не замечая этого. Самые близкие люди делают друг другу больнее всего. «Гости» - это такой постгоголевский сюжет. Это «Ревизор» не XXI, а, наверно, XXIII века. В пьесе действуют не характеры, а человеческие типы, выпуклые и многогранные образы, почти как у Гоголя. В какое-то отдаленное замкнутое пространство, в какой-то отдаленный уголок N-й страны забрасывает столичного жителя, и там с ним начинают происходить странные вещи. Как его встречает глубинка и что она с ним делает - в этом основная интрига пьесы. Выживает ли сегодня сильнейший? Или корысть, зависть и алчность побеждают все в современном мире? Нужна ли сегодня человечность или это совершенно архаичное и забытое понятие?
Этот спектакль - первая постановка О. Буковски в Москве. Пьеса несколько раз была представлена на читках, но ее не ставили ни в одном из театров. Театр - это всегда неожиданность и откровение. А «Другой театр» - именно то место, где возможен творческий поиск и эксперимент.

Дополнительная информация:
Страна: Россия .
Автор: Оливер Буковски.


Релиз
Рип sharky.

Качество видео:...SATRip
Формат:.................AVI
Видео:..704x528 (1.33:1), 25 fps, DivX Codec 4.x ~1486 kbps avg, 0.16 bit/pixel
Аудио:..44.100 kHz, MPEG Layer 3, 2 ch, ~128.00 kbps avg

Отчет Media Info

General
Complete name : Gosti_Drugoj.teatr.2013.DivX.WEB-DLRip.fenixclub.avi
Format : AVI
Format/Info : Audio Video Interleave
File size : 1.09 GiB
Duration : 1h 36mn
Overall bit rate : 1 625 Kbps
Video
ID : 0
Format : MPEG-4 Visual
Format settings, BVOP : 1
Format settings, QPel : No
Format settings, GMC : No warppoints
Format settings, Matrix : Default (H.263)
Codec ID : DX50
Codec ID/Hint : DivX 5
Duration : 1h 36mn
Bit rate : 1 487 Kbps
Width : 704 pixels
Height : 528 pixels
Display aspect ratio : 4:3
Frame rate : 25.000 fps
Color space : YUV
Chroma subsampling : 4:2:0
Bit depth : 8 bits
Scan type : Progressive
Compression mode : Lossy
Bits/(Pixel*Frame) : 0.160
Stream size : 1 022 MiB (92%)
Title : Video
Writing library : DivX 3013
Audio
ID : 1
Format : MPEG Audio
Format version : Version 1
Format profile : Layer 3
Codec ID : 55
Codec ID/Hint : MP3
Duration : 1h 36mn
Bit rate mode : Constant
Bit rate : 128 Kbps
Channel(s) : 2 channels
Sampling rate : 44.1 KHz
Compression mode : Lossy
Stream size : 88.0 MiB (8%)
Alignment : Split accross interleaves
Interleave, duration : 40 ms (1.00 video frame)
Interleave, preload duratio : 500 ms
Title : Audio

Скриншоты


Альтернативный хост





Показать сообщения:    

Текущее время: 07-Дек 13:34

Часовой пояс: UTC + 3


Вы не можете начинать темы
Вы не можете отвечать на сообщения
Вы не можете редактировать свои сообщения
Вы не можете удалять свои сообщения
Вы не можете голосовать в опросах
Вы не можете прикреплять файлы к сообщениям
Вы не можете скачивать файлы