Мастер. Василий Шукшин (Олег Пермяков) [2015 г., Музыкально-драматическая сюита, SATRip] Московский международный Дом музыки


 

[Цитировать]

Мастер. Василий Шукшин Московский международный Дом музыки.
Год выпуска: 2015.
Жанр: Музыкально-драматическая сюита.
Продолжительность: 01:27:12.
Режиссёр: Олег Пермяков.
Исполнители:
Сергей Маховиков, Александр Ф. Скляр, актеры Алтайского краевого театра драмы им. В. М. Шукшина.
Камерный хор Московской государственной консерватории имени Петра Чайковского.
Симфонический оркестр Государственной филармонии Алтайского края.
Дирижер
- Дмитрий Лузин.
Описание:
Музыкально-драматическая сюита "Мастер" - полижанровое действо, сочиненное на Алтае, на родине Василия Шукшина, в год, когда ему исполнилось бы 85. Премьера состоялась в рамках Всероссийского фестиваля "Шукшинские дни на Алтае". "Мастера" смогли увидеть зрители города Иваново, Санкт-Петербурга, Ярославля и Москвы. Представленная вашему вниманию запись сделана в Светлановском зале Московского международного Дома музыки. Слово и музыка – вот основы жанра, к которому принадлежит "Мастер". На сцене одновременно присутствуют музыканты симфонического оркестра, участники хора и драматические артисты. Это не спектакль, не концерт, но пример оригинального синтеза жанров.
За Шукшина читает актер Сергей Маховиков. Поодаль сидит на высоком табурете певец Александр Ф. Скляр. В прихотливой структуре сюиты он отвечает за музыку той эпохи, в которую жил и творил Шукшин. В исполнении музыканта звучат песни Владимира Высоцкого, Юрия Визбора, Сергея Никитина, какие-то песенки из времен, когда Василий Макарович был совсем юн. Скляр исполняет их на свой лад, но с любовью и трепетом. А симфоническую музыку к "Мастеру" написал знаменитый композитор Эдуард Артемьев. В сюите "Мастер" читают не только отрывки из произведений Шукшина, но и стихи поэтов-шестидесятников, Арсения Тарковского и Сергея Есенина – чтобы создать контекст времени и, возможно, контраст с внутренним миром Василия Макаровича, в котором модное, наносное никогда не затмевало патриархальных народных ценностей.

Дополнительная информация:
Страна: Россия .
Релиз
Качество видео:...SATRip
Формат:.................AVI
Видео:..720x416 (1.73:1), 25 fps, DivX Codec 6.8.3 ~2096 kbps avg, 0.28 bit/pixel
Аудио:..44.100 kHz, MPEG Layer 3, 2 ch, ~128.00 kbps avg

Отчет MI

General
Complete name : Master.Shukshin.2015.DivX.TVRip.fenixclub.avi
Format : AVI
Format/Info : Audio Video Interleave
File size : 1.36 GiB
Duration : 1h 27mn
Overall bit rate : 2 234 Kbps
Video
ID : 0
Format : MPEG-4 Visual
Format settings, BVOP : 1
Format settings, QPel : No
Format settings, GMC : No warppoints
Format settings, Matrix : Default (H.263)
Codec ID : DX50
Codec ID/Hint : DivX 5
Duration : 1h 27mn
Bit rate : 2 097 Kbps
Width : 720 pixels
Height : 416 pixels
Display aspect ratio : 1.731
Frame rate : 25.000 fps
Color space : YUV
Chroma subsampling : 4:2:0
Bit depth : 8 bits
Scan type : Progressive
Compression mode : Lossy
Bits/(Pixel*Frame) : 0.280
Stream size : 1.28 GiB (94%)
Writing library : DivX 6.8.3-6.8.4 (UTC 2008-06-07)
Audio
ID : 1
Format : MPEG Audio
Format version : Version 1
Format profile : Layer 3
Mode : Joint stereo
Mode extension : MS Stereo
Codec ID : 55
Codec ID/Hint : MP3
Duration : 1h 27mn
Source duration : 1h 27mn
Bit rate mode : Constant
Bit rate : 128 Kbps
Channel(s) : 2 channels
Sampling rate : 44.1 KHz
Compression mode : Lossy
Stream size : 79.8 MiB (6%)
Alignment : Aligned on interleaves
Interleave, duration : 40 ms (1.00 video frame)
Writing library : LAME3.98.2

Скриншоты

Альтернативный хост




Показать сообщения:    

Текущее время: 08-Дек 23:11

Часовой пояс: UTC + 3


Вы не можете начинать темы
Вы не можете отвечать на сообщения
Вы не можете редактировать свои сообщения
Вы не можете удалять свои сообщения
Вы не можете голосовать в опросах
Вы не можете прикреплять файлы к сообщениям
Вы не можете скачивать файлы