Поллианна (Людмила Матис) [2015 г., притча о печали и радости, SATRip] Драма номер три (Каменск-Уральский театр драмы)


 

[Цитировать]

Поллианна Название театра: Драма номер три (Каменск-Уральский театр драмы).
Год выпуска: 2015.
Жанр: притча о печали и радости.
Продолжительность: 01:57:36.
Режиссер: Людмила Матис.
Действующие лица и исполнители:
Поллианна - Кристина Капустина,
Мисс Полли Харрингтон - заслуженная артистка России Лариса Комаленкова,
Нэнси - Алена Федотова,
Мистер Пендлтон - заслуженный артист России Вячеслав Соловиченко,
Доктор Чилтон - Владимир Скрябин,
Миссис Сноу - Ирма Арендт,
Милли Сноу - Анна Комарова,
Мистер Форд - Геннадий Ильин,
Миссис Бентон - заслуженная артистка России Светлана Лаптева,
Миссис Тарбелл - Нина Бузинская,
Миссис Пейсон - Анна Мальцева,
Джимми Бин - Андрей Папшев.
О спектакле:
Почему в нашей жизни много печали? Радость. Откуда она берется? В небольшой городок, живущий своими серыми буднями, приезжает девочка, оставшаяся без родителей. Теперь ее судьба зависит от взрослых, которым, по-правде говоря, совсем нет дела до чужого ребенка. Но неожиданно оказывается, что они нуждаются в этой девочке ничуть не меньше, чем она в них. Город меняется…
Дополнительная информация:
Страна: Россия .
Выпущено: Драма номер три (Каменск-Уральский театр драмы), Студия "Киноправда".
Награды и номинации:
• Лауреат V областноого конкурса "Камертон",
• 2008 - Обладатель специального приза фестиваля "Браво!"-2008 от "Областной газеты",
• декабрь 2010, Челябинск. Участник VIII детского театрального благотворительного фестиваля "Снежность". Диплом крупно.
Автор: Элинор Портер.
Художник-постановщик: Валентина Ибрагимова.
Художник по костюмам: Анна Ермакова.
Музыкальное оформление: Наталья Бахарева.
Художественный руководитель театра: Людмила Матис.
Премьера спектакля состоялась 3 ноября 2008 года.

О спектакле.
Релиз

Качество видео:...SATRip
Формат:.................AVI
Видео:..720x544 (1.32:1), 25 fps, XviD MPEG-4 ~1524 kbps avg, 0.16 bit/pixel
Аудио:..44.100 kHz, MPEG Layer 3, 2 ch, ~128.00 kbps avg

Отчет MI

Общее
Полное имя : Pollianna_Kamensk-Ural'skij.teatr dramy.2015.XviD.SATRip.fenixclub.avi
Format : AVI
Format/Info : Audio Video Interleave
File size : 1.37 GiB
Duration : 1h 57mn
Overall bit rate : 1 663 Kbps
Writing application : VirtualDubModRus 1.5.10.2 (build 2542/release)
Writing library : VirtualDubMod build 2542/release
Video
ID : 0
Format : MPEG-4 Visual
Format profile : Advanced Simple@L5
Format settings, BVOP : 2
Format settings, QPel : No
Format settings, GMC : No warppoints
Format settings, Matrix : Default (H.263)
Codec ID : XVID
Codec ID/Hint : XviD
Duration : 1h 57mn
Bit rate : 1 525 Kbps
Width : 720 pixels
Height : 544 pixels
Display aspect ratio : 4:3
Frame rate : 25.000 fps
Color space : YUV
Chroma subsampling : 4:2:0
Bit depth : 8 bits
Scan type : Progressive
Compression mode : Lossy
Bits/(Pixel*Frame) : 0.156
Stream size : 1.25 GiB (92%)
Writing library : XviD 73
Audio
ID : 1
Format : MPEG Audio
Format version : Version 1
Format profile : Layer 3
Mode : Joint stereo
Codec ID : 55
Codec ID/Hint : MP3
Duration : 1h 57mn
Bit rate mode : Constant
Bit rate : 128 Kbps
Channel(s) : 2 channels
Sampling rate : 44.1 KHz
Compression mode : Lossy
Stream size : 108 MiB (8%)
Alignment : Split accross interleaves
Interleave, duration : 40 ms (1.00 video frame)
Interleave, preload duratio : 500 ms
Writing library : LAME3.98.2

Скриншоты

Альтернативный хост




Показать сообщения:    

Текущее время: 24-Янв 00:03

Часовой пояс: UTC + 3


Вы не можете начинать темы
Вы не можете отвечать на сообщения
Вы не можете редактировать свои сообщения
Вы не можете удалять свои сообщения
Вы не можете голосовать в опросах
Вы не можете прикреплять файлы к сообщениям
Вы не можете скачивать файлы