Приключения Чиполлино (Валерий Маркин) [2006 г., музыкальная сказка, WEB-DLRip] Пензенский областной драматический театр им. А. В. Луначарского


 

[Цитировать]

Приключения Чиполлино Название театра: Пензенский областной драматический театр им. А. В. Луначарского.
Год выпуска: 2006.
Жанр: музыкальная сказка.
Продолжительность: 01:19:40.
Режиссер: Валерий Маркин.
Действующие лица и исполнители:
Принц Лимон - заслуженный артист России Генрих Вавилов,
Старшая Графиня Вишня - заслуженная артистка России Галина Репная,
Младшая Графиня Вишня - Лидия Стаханова,
Граф Вишенка - Анатолий Громов,
Земляничка - Лилия Захаркив,
Мастино - Денис Рогожников,
Церемониймейстер - Антон Хатеев,
Синьор Помидор - Сергей Дрожжилов,
Чиполлино - Григорий Мазур,
Редисочка - Анна Лего,
Кум Тыква - Владислав Матюкин,
Фасолинка - Ольга Белякова,
Картошечка - Наталья Арефьева,
Мистер Моркоу - Владимир Карпов.
О спектакле:
Музыкальное представление из жизни овощей и фруктов по мотивам сказки Джанни Родари.
Дополнительная информация:
Страна: Россия .
Подготовлено студией Вячеслава Борисова.
Автор: Джанни Родари.
Автор сценария: Андрей Бадулин, Александр Чутко.
Художник-постановщик: Любовь Цыбарева.
Композитор: Юрий Трубиньш.
Балетмейстер: Наталья Кинге.
Стихотворные тексты: Виталий Соколов.
Художественный руководитель театра: заслуженный артист России Сергей Казаков.

Релиз
Рип sharky.

Качество видео:...WEB-DLRip
Формат:.................AVI
Видео:..704x528 (1.33:1), 25 fps, XviD build 50 ~1819 kbps avg, 0.20 bit/pixel
Аудио:..44.100 kHz, MPEG Layer 3, 2 ch, ~128.00 kbps avg

Отчет MI

Общее
Полное имя : Priklyuchenie.Chipollino_Penzenskij.ODT.im.Lunacharskogo.2006.XviD.WEB-DLRip.fenixclub.avi
Format : AVI
Format/Info : Audio Video Interleave
File size : 1.09 GiB
Duration : 1h 19mn
Overall bit rate : 1 957 Kbps
Writing application : VirtualDubMod 1.5.10.3 | www.virtualdub-fr.org || (build 2550/release)
Writing library : VirtualDubMod build 2550/release
Video
ID : 0
Format : MPEG-4 Visual
Format profile : Advanced Simple@L5
Format settings, BVOP : 1
Format settings, QPel : No
Format settings, GMC : No warppoints
Format settings, Matrix : Default (H.263)
Codec ID : XVID
Codec ID/Hint : XviD
Duration : 1h 19mn
Bit rate : 1 820 Kbps
Width : 704 pixels
Height : 528 pixels
Display aspect ratio : 4:3
Frame rate : 25.000 fps
Color space : YUV
Chroma subsampling : 4:2:0
Bit depth : 8 bits
Scan type : Progressive
Compression mode : Lossy
Bits/(Pixel*Frame) : 0.196
Stream size : 1.01 GiB (93%)
Writing library : XviD 1.2.1 (UTC 2008-12-04)
Audio
ID : 1
Format : MPEG Audio
Format version : Version 1
Format profile : Layer 3
Codec ID : 55
Codec ID/Hint : MP3
Duration : 1h 19mn
Bit rate mode : Constant
Bit rate : 128 Kbps
Channel(s) : 2 channels
Sampling rate : 44.1 KHz
Compression mode : Lossy
Stream size : 72.9 MiB (7%)
Alignment : Split accross interleaves
Interleave, duration : 40 ms (1.00 video frame)
Interleave, preload duratio : 500 ms
Writing library : LAME3.99r
Encoding settings : -m s -V 4 -q 2 -lowpass 17 -b 128

Скриншоты


Альтернативный хост





Показать сообщения:    

Текущее время: 08-Дек 09:06

Часовой пояс: UTC + 3


Вы не можете начинать темы
Вы не можете отвечать на сообщения
Вы не можете редактировать свои сообщения
Вы не можете удалять свои сообщения
Вы не можете голосовать в опросах
Вы не можете прикреплять файлы к сообщениям
Вы не можете скачивать файлы