Коробочка и Ч (Сергей Герасимов) [2014 г., фантасмагория, WEB-DLRip] Пензенский театр юного зрителя


 

[Цитировать]

Коробочка и Ч Название театра: Пензенский театр юного зрителя.
Год выпуска: 2014.
Жанр: фантасмагория.
Продолжительность: 01:17:16.
Режиссер: Сергей Герасимов.
Действующие лица и исполнители:
Коробочка - Татьяна Коновалова,
Чичиков - Сергей Пахомов,
Анна Григорьевна - Марина Кинге,
Софья Ивановна - Татьяна Пчелинцева,
Селифан, Фетинья, Палашка - Сергей Тельнов.
О спектакле:
Фантасмагория в двух картинах по мотивам произведений Н. В. Гоголя.
«Коробочка и Ч» — это спектакль про наш ТЮЗ, про сотни подобных провинциальных театров и людей, которые служат в них. Про тех, кто, несмотря на скотское отношение к культуре, не стал «Мертвыми душами». Сам спектакль, хоть и заявлен как фантасмагория, дышит болью нынешней жизни — это не мистика, не фарс, это капиталистический реализм чистой воды, это спектакль о нас с вами.
Павел Прохоренков

Дополнительная информация:
Страна: Россия .
Автор пьесы: Николай Коляда.
По мотивам произведений Николая Васильевича Гоголя.
Художник-постановщик: Александр Пронский.
Художник по костюмам: Александра Цыпнятова.
Хореографы: Валерий Краснов, Анна Саранскова.

О спектакле.
Релиз
Рип sharky.

Качество видео:...WEB-DLRip
Формат:.................AVI
Видео:..704x400 (1.76:1), 25 fps, XviD build 50 ~1880 kbps avg, 0.27 bit/pixel
Аудио:..44.100 kHz, MPEG Layer 3, 2 ch, ~128.00 kbps avg

Отчет MI

Общее
Полное имя : Korobochka.i.Ch_Penzenskij.TYuZ.2014.XviD.WEB-DLRip.fenixclub.avi
Format : AVI
Format/Info : Audio Video Interleave
File size : 1.09 GiB
Duration : 1h 17mn
Overall bit rate : 2 018 Kbps
Writing application : VirtualDubMod 1.5.10.3 | www.virtualdub-fr.org || (build 2550/release)
Writing library : VirtualDubMod build 2550/release
Video
ID : 0
Format : MPEG-4 Visual
Format profile : Advanced Simple@L5
Format settings, BVOP : 1
Format settings, QPel : No
Format settings, GMC : No warppoints
Format settings, Matrix : Default (H.263)
Codec ID : XVID
Codec ID/Hint : XviD
Duration : 1h 17mn
Bit rate : 1 880 Kbps
Width : 704 pixels
Height : 400 pixels
Display aspect ratio : 16:9
Frame rate : 25.000 fps
Color space : YUV
Chroma subsampling : 4:2:0
Bit depth : 8 bits
Scan type : Progressive
Compression mode : Lossy
Bits/(Pixel*Frame) : 0.267
Stream size : 1.01 GiB (93%)
Writing library : XviD 1.2.1 (UTC 2008-12-04)
Audio
ID : 1
Format : MPEG Audio
Format version : Version 1
Format profile : Layer 3
Codec ID : 55
Codec ID/Hint : MP3
Duration : 1h 17mn
Bit rate mode : Constant
Bit rate : 128 Kbps
Channel(s) : 2 channels
Sampling rate : 44.1 KHz
Compression mode : Lossy
Stream size : 70.7 MiB (6%)
Alignment : Split accross interleaves
Interleave, duration : 40 ms (1.00 video frame)
Interleave, preload duratio : 500 ms
Writing library : LAME3.99r
Encoding settings : -m s -V 4 -q 2 -lowpass 17 -b 128

Скриншот с названием постановки

Скриншоты


Альтернативный хост





Показать сообщения:    

Текущее время: 07-Дек 17:25

Часовой пояс: UTC + 3


Вы не можете начинать темы
Вы не можете отвечать на сообщения
Вы не можете редактировать свои сообщения
Вы не можете удалять свои сообщения
Вы не можете голосовать в опросах
Вы не можете прикреплять файлы к сообщениям
Вы не можете скачивать файлы