Бесприданник (Арташес Тер-Казаров) [2001 г., комедия, WEB-DLRip] Пензенский областной драматический театр им. А. В. Луначарского


 

[Цитировать]

Бесприданник Название театра: Пензенский областной драматический театр им. А. В. Луначарского.
Год выпуска: 2001.
Жанр: комедия.
Продолжительность: 01:52:38.
Режиссер:
Арташес Тер-Казаров
.
Действующие лица и исполнители:
Вика, сотрудница фирмы "Один плюс" - Марина Михайлова,
Томусик, школьный библиотекарь - Татьяна Городецкая,
Марго (Маргарита Серафимовна Лучезарная), известная писательница - Лидия Стаханова,
Фроська (Козодуева, она же Ариадна Сергеевна), бизнесмен - заслуженная артистка России Галина Репная,
Баба Паша, бывшая передовая доярка - народная артистка России
Мария Тамбулатова
,
Иван Кузьмич Чернохвостов, жених - заслуженный артист РСФСР Генрих Вавилов.
О спектакле:
История о четырёх женщинах, совсем не похожих друг на друга — ни взглядами на жизнь, ни характерами, ни судьбами. Их объединяет одно — страстное желание выйти замуж. Да только выбор невелик — в их распоряжении всего один мужчина, и тот бесприданник...
Дополнительная информация:
Страна: Россия .
Подготовлено студией Вячеслава Борисова.
Автор: Людмила Разумовская.
Художник-постановщик: Алла Мальцева.
Музыкальное оформление: Евгений Бакалов.
Художественный руководитель театра: заслуженный артист России Сергей Казаков.

Релиз
Рип sharky.

Качество видео:...WEB-DLRip
Формат:.................AVI
Видео:..704x528 (1.33:1), 25 fps, XviD build 50 ~1705 kbps avg, 0.18 bit/pixel
Аудио:..44.100 kHz, MPEG Layer 3, 2 ch, ~128.00 kbps avg

Отчет MI

Общее
Полное имя : Bespridannik_Penzenskij.ODT.im.Lunacharskogo.2001.XviD.WEB-DLRip.fenixclub.avi
Format : AVI
Format/Info : Audio Video Interleave
File size : 1.45 GiB
Duration : 1h 52mn
Overall bit rate : 1 843 Kbps
Writing application : VirtualDubMod 1.5.10.3 | www.virtualdub-fr.org || (build 2550/release)
Writing library : VirtualDubMod build 2550/release
Video
ID : 0
Format : MPEG-4 Visual
Format profile : Advanced Simple@L5
Format settings, BVOP : 1
Format settings, QPel : No
Format settings, GMC : No warppoints
Format settings, Matrix : Default (H.263)
Codec ID : XVID
Codec ID/Hint : XviD
Duration : 1h 52mn
Bit rate : 1 706 Kbps
Width : 704 pixels
Height : 528 pixels
Display aspect ratio : 4:3
Frame rate : 25.000 fps
Color space : YUV
Chroma subsampling : 4:2:0
Bit depth : 8 bits
Scan type : Progressive
Compression mode : Lossy
Bits/(Pixel*Frame) : 0.184
Stream size : 1.34 GiB (93%)
Writing library : XviD 1.2.1 (UTC 2008-12-04)
Audio
ID : 1
Format : MPEG Audio
Format version : Version 1
Format profile : Layer 3
Codec ID : 55
Codec ID/Hint : MP3
Duration : 1h 52mn
Bit rate mode : Constant
Bit rate : 128 Kbps
Channel(s) : 2 channels
Sampling rate : 44.1 KHz
Compression mode : Lossy
Stream size : 103 MiB (7%)
Alignment : Split accross interleaves
Interleave, duration : 40 ms (1.00 video frame)
Interleave, preload duratio : 500 ms
Writing library : LAME3.99r
Encoding settings : -m s -V 4 -q 2 -lowpass 17 -b 128

Скриншоты


Альтернативный хост





Показать сообщения:    

Текущее время: 10-Дек 00:17

Часовой пояс: UTC + 3


Вы не можете начинать темы
Вы не можете отвечать на сообщения
Вы не можете редактировать свои сообщения
Вы не можете удалять свои сообщения
Вы не можете голосовать в опросах
Вы не можете прикреплять файлы к сообщениям
Вы не можете скачивать файлы