Перед заходом солнца (Герхарт Гауптман, Борис Луценко) [2007, Республика Беларусь, Драма в 2-х действиях, DVB-AVC] Национальный академический драматический театр им. Максима Горького, Минск


 

[Цитировать]

Перед заходом солнца
Название театра: Национальный академический драматический театр им. Максима Горького, Минск
Страна: Республика Беларусь
Жанр: Драма в 2-х действиях
Год выпуска: 2007
Продолжительность: 02:49:31
Перевод: Не требуется
Язык: Русский
Режиссёр: народный артист Беларуси Борис Луценко
В ролях:
Маттиас Клаузен – народный артист СССР Ростислав Янковский
Беттина, дочь Маттиаса Клаузена – народная артистка Беларуси Белла Масумян
Вольфганг, сын Маттиаса Клаузена – Вячеслав Солодилов
Оттилия, дочь Маттиаса Клаузена – заслуженная артистка Республики Беларусь Анна Маланкина
Эгмонт, сын Маттиаса Клаузена – заслуженный артист Республики Беларусь Сергей Чекерес
Эрих Кламрот, муж Оттилии – заслуженный артист Республики Беларусь Иван Мацкевич
Паула-Клотильда, жена Вольфганга – Лина Цветкова
Штайниц, врач и личный друг Маттиаса Клаузена – заслуженный артист Российской Федерации Олег Корчиков
Ганефельд, адвокат - Александр Жданович
Пастор Иммос – Андрей Дударенко
Винтер, управляющий – заслуженный артист Российской Федерации Александр Брухацкий
Анна Петерс, вдова – заслуженная артистка Республики Беларусь Людмила Былинская
Инкен Петерс, её дочь – заслуженная артистка Республики Беларусь Оксана Лесная
Мэр – Андрей Захаревич
Гюнтер, владелец пивной – Виктор Гудинович
Жена Маттиаса Клаузена – Татьяна Гаркуша
Слуги, танцоры и завсегдатаи пивной: Александра Богданова, Владимир Глотов, Мария Денисова, Елена Дубровская, Елена Козырева, Андрей Кривецкий, Дмитрий Рачковский
Описание: Сегодня, как и сто лет назад, эта история странной любви 70-летнего мужчины и 20-летней девушки по-прежнему волнует и восхищает. В блестящем актёрском ансамбле Русского театра по-особому раскрылся талант мэтра сценического искусства, народного артиста СССР Ростислава Ивановича Янковского. В этой его роли незаурядное актёрское дарование и личностные качества большого человека замечательным образом совпали, явив полифоничный образ настоящего Героя, способного противостоять косности изживших себя стереотипов и привычек, отстоять своё человеческое право на выбор и сохранить цельность души.
Общественная мораль никогда не примирится с внутренней свободой человека. Семья, как гигантский спрут, тысячами присосок держит человека в статичном положении. Держит даже тогда, когда он выполнил перед ней все свои обязанности. Дети убивают обожаемого ими отца только за то, что он посмел стать свободным от них, от их эгоизма и притязаний на его чувства, поступки. Только вот убить Любовь они не смогли, и именно она стала ярким светом перед заходом солнца большого человека, ставшего свободным.
Доп. информация:
Перевод и инсценировка – Виктор Леденев
Художник-постановщик – Александр Костюченко
Художник по костюмам – Нина Гурло
Хореография – Марина Филатова
Композитор – Александр Ренанский
Премьера спектакля состоялась 10 декабря 2002 года

Запись потока *.ts с наземного цифрового телеканала "Беларусь 3", ремукс в *.mkv программой VideoReDo.
Семпл: http://rusfolder.com/44698696
Качество видео: DVB
Формат видео: MKV
Видео: AVC (H264), 720x576 (4:3), 25 fps, 2 202 Kbps
Аудио: MP2, 256 kbps, 2 channels, 48 kHz

MediaInfo

GeneralUnique ID : 30184721251579479978257939423358937627 (0x16B55DA87C5FE80B7FB9DF13DB48EA1B)Complete name : D:\Новая земля 2\Театр\Перед заходом солнца (2007)\Перед заходом солнца (2007).mkvFormat : MatroskaFormat version : Version 2File size : 2.97 GiBDuration : 2h 49mnOverall bit rate : 2 508 KbpsWriting application : Lavf52.64.2Writing library : Lavf52.64.2
VideoID : 1Format : AVCFormat/Info : Advanced Video CodecFormat profile : Main@L3.0Format settings, CABAC : YesFormat settings, ReFrames : 4 framesFormat settings, GOP : M=4, N=24Codec ID : V_MPEG4/ISO/AVCDuration : 2h 49mnBit rate : 2 202 KbpsWidth : 720 pixelsHeight : 576 pixelsDisplay aspect ratio : 4:3Original display aspect ratio : 4:3Frame rate mode : ConstantFrame rate : 25.000 fpsStandard : PALColor space : YUVChroma subsampling : 4:2:0Bit depth : 8 bitsScan type : MBAFFScan order : Top Field FirstBits/(Pixel*Frame) : 0.212Stream size : 2.61 GiB (88%)Default : YesForced : NoColor primaries : BT.601 PALTransfer characteristics : BT.470 System B, BT.470 System GMatrix coefficients : BT.601Color range : Limited
AudioID : 2Format : MPEG AudioFormat version : Version 1Format profile : Layer 2Codec ID : A_MPEG/L2Codec ID/Hint : MP2Duration : 2h 49mnBit rate mode : ConstantBit rate : 256 KbpsChannel(s) : 2 channelsSampling rate : 48.0 KHzCompression mode : LossyStream size : 310 MiB (10%)Language : EnglishDefault : YesForced : No



Показать сообщения:    

Текущее время: 08-Дек 19:11

Часовой пояс: UTC + 3


Вы не можете начинать темы
Вы не можете отвечать на сообщения
Вы не можете редактировать свои сообщения
Вы не можете удалять свои сообщения
Вы не можете голосовать в опросах
Вы не можете прикреплять файлы к сообщениям
Вы не можете скачивать файлы