Грех лицедейства (Александр Карпов, Евгений Белькевич) [1991 г., ироническая фантазия, фильм-спектакль, SATRip] Русский драматический театр БССР им. М.Горького (сейчас Национальный драматический театр им. М.Горького), г. Минск


 

[Цитировать]

Грех лицедейства Название театра: Русский драматический театр БССР им. М.Горького (сейчас Национальный драматический театр им. М.Горького), г. Минск.
Год выпуска: 1991.
Жанр: ироническая фантазия, фильм-спектакль.
Продолжительность: 02:19:44.
Режиссер: Александр Карпов, Евгений Белькевич.
В ролях:
Ростислав Янковский, Анна Маланкина, Белла Масумян, Владимир Корпусь, Антонина Аксенова, Борис Падва, Елена Цветкова, Виталий Быков, Владимир Шелестов, Галина Доля, Людмила Былинская, Наталья Чемодурова, Геннадий Дробышевский, Анатолий Кашкер, Андрей Кашкер, Борис Иващенко, Юрий Сидоров, Вячеслав Солодилов, Олимпиада Шах-Парон, Александр Карпов мл., Лариса Карпова, Лидия Мордачёва.
О спектакле:
По пьесам Фридриха Дюрренматта "Метеор" и Жана Ануя "Оркестр". Из закулисной жизни театральной богемы.
Дополнительная информация:
Страна: СССР .
Выпущено: ВКС "Артель Ф" при участии киностудии "Беларусьфильм".
Режиссер: Евгений Белькевич.
Автор сценария: Александр Карпов.
Сценография: Юрий Тур.
Музыка в аранжировке Анатолия Архипова.
Художник сценического костюма: Наталья Сардарова.

Релиз

Качество видео:...SATRip
Формат:.................AVI
Видео:..720x544 (1.32:1), 25 fps, XviD MPEG-4 ~1359 kbps avg, 0.14 bit/pixel
Аудио:..48 kHz, MPEG Layer 3, 2 ch, ~128.00 kbps avg

Отчет MI

Общее
Полное имя : Greh.licedejstva_Russkij.DT.BSSR.Minsk.1991.XviD.SATRip.fenixclub.avi
Format : AVI
Format/Info : Audio Video Interleave
File size : 1.46 GiB
Duration : 2h 19mn
Overall bit rate : 1 498 Kbps
Writing application : VirtualDubModRus 1.5.10.2 (build 2542/release)
Writing library : VirtualDub build 32842/release
Video
ID : 0
Format : MPEG-4 Visual
Format profile : Advanced Simple@L5
Format settings, BVOP : 2
Format settings, QPel : No
Format settings, GMC : No warppoints
Format settings, Matrix : Default (H.263)
Codec ID : XVID
Codec ID/Hint : XviD
Duration : 2h 19mn
Bit rate : 1 360 Kbps
Width : 720 pixels
Height : 544 pixels
Display aspect ratio : 4:3
Frame rate : 25.000 fps
Color space : YUV
Chroma subsampling : 4:2:0
Bit depth : 8 bits
Scan type : Progressive
Compression mode : Lossy
Bits/(Pixel*Frame) : 0.139
Stream size : 1.33 GiB (91%)
Writing library : XviD 73
Audio
ID : 1
Format : MPEG Audio
Format version : Version 1
Format profile : Layer 3
Mode : Joint stereo
Mode extension : MS Stereo
Codec ID : 55
Codec ID/Hint : MP3
Duration : 2h 19mn
Bit rate mode : Constant
Bit rate : 128 Kbps
Channel(s) : 2 channels
Sampling rate : 48.0 KHz
Compression mode : Lossy
Stream size : 128 MiB (9%)
Alignment : Split accross interleaves
Interleave, duration : 40 ms (1.00 video frame)
Interleave, preload duratio : 500 ms.

Скриншоты


Альтернативный хост





Показать сообщения:    

Текущее время: 10-Дек 17:44

Часовой пояс: UTC + 3


Вы не можете начинать темы
Вы не можете отвечать на сообщения
Вы не можете редактировать свои сообщения
Вы не можете удалять свои сообщения
Вы не можете голосовать в опросах
Вы не можете прикреплять файлы к сообщениям
Вы не можете скачивать файлы