Король Ричард II (Роман Федотов, Евгений Злобин) [1991, Историческая хроника, телеспектакль, TVRip]


 

[Цитировать]

Король Ричард II (2 серии) Год выпуска: 1991.
Жанр: Историческая хроника, телеспектакль.
Продолжительность: 01:28:56 + 01:59:56 (03:28:52).
Режиссер: Роман Федотов, Евгений Злобин.
Действующие лица и исполнители:
Эдуард III - Виктор Ростовцев,
Ричард - Александр Романцов,
Болингброк - Николай Лавров,
Йорк - Михаил Матвеев,
Гант - Валентин Головко,
Омерль - Валерий Зиновьев,
Нортемберленд - Леонид Михайловский,
Герцогиня Глостерская - Зинаида Шарко,
Герцогиня Йоркская - Наталья Малыгина,
Королева - Байба Иванова,
Норфолк - Евгений Салюков,
Серри - Владимир Курашкин,
Солсберри - Вячеслав Ракитянский,
Баркли - Валерий Синяков,
Буши - Ромуальд Макаренко,
Бегот - Александр Саюталин,
Грин - Сергей Лосев,
Перси - Игорь Павлов,
Росс - Владимир Максимов,
Уиллоби - Николай Мартон,
Фицуотер - Алексей Козлов,
Епископ Карлей - Игорь Ефимов,
Аббат - Виктор Выбриенко,
Лорд-маршал - Петр Шелохонов,
Экстон - Владимир Козлов,
Скруп - Николай Смирнов,
Лорд Бомонд - Дмитрий Ельчин,
Тюремщик - Александр Глазун,
Конюх - Евгений Меркурьев.
О спектакле:
Телеспектакль по исторической хронике Уильяма Шекспира (1595), охватывает события 1399—1400 гг.; в её центре — низложение короля Ричарда II и захват власти его двоюродным братом Генрихом Болингброком — основателем дома Ланкастеров Генрихом IV, а затем убийство пленного Ричарда. В ряде прижизненных изданий названа трагедией.
Дополнительная информация:
Страна: СССР .
Выпущено: ТТЦ "Лира" Санкт-Петербург.
Автор: Уильям Шекспир.
Телевизионный сценарий: Евгений Злобин.
Художник-постановщик: Виктор Садовой.
Композитор: Станислав Пучков.
Оператор-постановщик: Александр Добрияник.
Релиз
Рип медикус.
За исходник спасибо
Павел Арефьев "ВКонтакте".
Качество, к сожалению, оставляет желать лучшего...


Качество видео:...TVRip
Формат:.................AVI

Видео

1-я серия - 640x480 (1.33:1), 25 fps, XviD build 64 ~1160 kbps avg, 0.15 bit/pixel,
2-я серия - 640x480 (1.33:1), 25 fps, XviD build 64 ~1022 kbps avg, 0.13 bit/pixel
Аудио:..44.100 kHz, MPEG Layer 3, 2 ch, ~128.00 kbps avg

Отчет Media Info

1-я серия
General
Complete name : Korol'.Richard.II.(2.serii).1991.XviD.TVRip.fenixclub\Korol'.Richard.II.1991.XviD.TVRip.fenixclub_1-ya.seriya.avi
Format : AVI
Format/Info : Audio Video Interleave
File size : 826 MiB
Duration : 1h 28mn
Overall bit rate : 1 298 Kbps
Writing library : VirtualDub build 32842/release
Video
ID : 0
Format : MPEG-4 Visual
Format profile : Advanced Simple@L5
Format settings, BVOP : 1
Format settings, QPel : No
Format settings, GMC : No warppoints
Format settings, Matrix : Default (MPEG)
Codec ID : XVID
Codec ID/Hint : XviD
Duration : 1h 28mn
Bit rate : 1 160 Kbps
Width : 640 pixels
Height : 480 pixels
Display aspect ratio : 4:3
Frame rate : 25.000 fps
Color space : YUV
Chroma subsampling : 4:2:0
Bit depth : 8 bits
Scan type : Progressive
Compression mode : Lossy
Bits/(Pixel*Frame) : 0.151
Stream size : 738 MiB (89%)
Writing library : XviD 64
Audio
ID : 1
Format : MPEG Audio
Format version : Version 1
Format profile : Layer 3
Mode : Joint stereo
Mode extension : MS Stereo
Codec ID : 55
Codec ID/Hint : MP3
Duration : 1h 28mn
Bit rate mode : Constant
Bit rate : 128 Kbps
Channel(s) : 2 channels
Sampling rate : 44.1 KHz
Compression mode : Lossy
Delay relative to video : 6ms
Stream size : 81.4 MiB (10%)
Alignment : Split accross interleaves
Interleave, duration : 40 ms (1.00 video frame)
Interleave, preload duratio : 500 ms.
2-я серия
General
Complete name : Korol'.Richard.II.(2.serii).1991.XviD.TVRip.fenixclub\Korol'.Richard.II.1991.XviD.TVRip.fenixclub_2-ya.seriya.avi
Format : AVI
Format/Info : Audio Video Interleave
File size : 996 MiB
Duration : 1h 59mn
Overall bit rate : 1 161 Kbps
Writing library : VirtualDub build 32842/release
Video
ID : 0
Format : MPEG-4 Visual
Format profile : Advanced Simple@L5
Format settings, BVOP : 1
Format settings, QPel : No
Format settings, GMC : No warppoints
Format settings, Matrix : Default (MPEG)
Codec ID : XVID
Codec ID/Hint : XviD
Duration : 1h 59mn
Bit rate : 1 023 Kbps
Width : 640 pixels
Height : 480 pixels
Display aspect ratio : 4:3
Frame rate : 25.000 fps
Color space : YUV
Chroma subsampling : 4:2:0
Bit depth : 8 bits
Scan type : Progressive
Compression mode : Lossy
Bits/(Pixel*Frame) : 0.133
Stream size : 878 MiB (88%)
Writing library : XviD 64
Audio
ID : 1
Format : MPEG Audio
Format version : Version 1
Format profile : Layer 3
Mode : Joint stereo
Mode extension : MS Stereo
Codec ID : 55
Codec ID/Hint : MP3
Duration : 1h 59mn
Bit rate mode : Constant
Bit rate : 128 Kbps
Channel(s) : 2 channels
Sampling rate : 44.1 KHz
Compression mode : Lossy
Stream size : 110 MiB (11%)
Alignment : Split accross interleaves
Interleave, duration : 40 ms (1.00 video frame)
Interleave, preload duratio : 500 ms.

Скриншоты


Альтернативный хост





Показать сообщения:    

Текущее время: 05-Дек 03:25

Часовой пояс: UTC + 3


Вы не можете начинать темы
Вы не можете отвечать на сообщения
Вы не можете редактировать свои сообщения
Вы не можете удалять свои сообщения
Вы не можете голосовать в опросах
Вы не можете прикреплять файлы к сообщениям
Вы не можете скачивать файлы