Добрый человек из Сезуана (Игорь Меркулов) [2015 г., пьеса-парабола, WEB-DLRip] Калининградский областной драматический театр


 

[Цитировать]

Добрый человек из Сезуана Название театра: Калининградский областной драматический театр.
Год выпуска: 2015.
Жанр: пьеса-парабола.
Продолжительность: 02:09:00.
Режиссер-постановщик: Игорь Меркулов.
Действующие лица и исполнители:
Ван-водонос - Максим Пацерин,
Три бога - Петр Мутин, Алексей Грызунов, Андрей Вареницын,
Шен Де. Шой Да - Марина Юнганс,
Ш. - Мария Савельева,
Ян Сун-летчик - Олег Яковенко,
Госпожа Ян, его мать - Наталья Салес,
Вдова Шин - Надежда Ильина,
Муж Ма Фу - заслуженный артист России Анатолий Лукин,
Жена Ма Фу - Галина Лукина,
Племянник - Василий Швечков (мл.),
Брат жены - Сергей Борисов,
Невестка - Любовь Орлова,
Дедушка - Артем Лернер,
Мальчик - Мария Авраменко,
Племянница - Елена Носырева,
Столяр Лин То - Антон Захаров,
Домовладелица Ми Дзю - заслуженная артистка России Надежда Гайдар,
Полицейский - заслуженный артист Республики Марий Эл Александр Егоров,
Господин Фен, торговец - заслуженный артист России Альберт Арнтгольц,
Госпожа Фен, его жена - Людмила Зиновьева,
Цирюльник Шу Фу - заслуженный артист России Николай Захаров,
Безработный надсмотрщик - Павел Сибиряков,
Бонза - Геннадий Филиппович,
Прохожие - Михаил Шевяков, Екатерина Наумова, Елена Курникова, Юлия Докторова.
О спектакле:
Культовая пьеса прошлого века обрела актуальное звучание в наше время (с этой пьесы началась история любимовского Театра на Таганке). История о доступной девушке Шен Те, которая за свою доброту получала лишь неблагодарность, пока в ее жизни не появился вдруг двоюродный брат - жестокий Шуй Та. Выдуманная история, выдуманный город, но чувства человеческие реальные, те, что испытывает любой из нас на протяжении всей жизни. Откуда взялся братец и что произошло дальше - узнаете, посмотрев спектакль.
Дополнительная информация:
Страна: Россия .
Автор пьесы: Бертольд Брехт.
Автор: Игорь Меркулов.
Художник-постановщик: Владимир Павлюк.
Художник по свету: Семён Машаров.
Музыкальное оформление: заслуженный деятель искусств России Аркадий Фельдман.
Премьера спектакля состоялась 27 февраля 2015 года.

О спектакле.
Релиз
Рип sharky.

Качество видео:...WEB-DLRip
Формат:.................AVI
Видео:..704x400 (1.76:1), 25 fps, XviD build 50 ~1524 kbps avg, 0.22 bit/pixel
Аудио:..44.100 kHz, MPEG Layer 3, 2 ch, ~128.00 kbps avg

Отчет MI

Общее
Полное имя : Dobryj.chelovek.iz.Sezuana_Kaliningradskij.ODT.2015.XviD.WEB-DLRip.fenixclub.avi
Format : AVI
Format/Info : Audio Video Interleave
File size : 1.50 GiB
Duration : 2h 8mn
Overall bit rate : 1 662 Kbps
Writing application : VirtualDubMod 1.5.10.3 | www.virtualdub-fr.org || (build 2550/release)
Writing library : VirtualDubMod build 2550/release
Video
ID : 0
Format : MPEG-4 Visual
Format profile : Advanced Simple@L5
Format settings, BVOP : 1
Format settings, QPel : No
Format settings, GMC : No warppoints
Format settings, Matrix : Default (H.263)
Codec ID : XVID
Codec ID/Hint : XviD
Duration : 2h 8mn
Bit rate : 1 525 Kbps
Width : 704 pixels
Height : 400 pixels
Display aspect ratio : 16:9
Frame rate : 25.000 fps
Color space : YUV
Chroma subsampling : 4:2:0
Bit depth : 8 bits
Scan type : Progressive
Compression mode : Lossy
Bits/(Pixel*Frame) : 0.217
Stream size : 1.37 GiB (92%)
Writing library : XviD 1.2.1 (UTC 2008-12-04)
Audio
ID : 1
Format : MPEG Audio
Format version : Version 1
Format profile : Layer 3
Codec ID : 55
Codec ID/Hint : MP3
Duration : 2h 8mn
Bit rate mode : Constant
Bit rate : 128 Kbps
Channel(s) : 2 channels
Sampling rate : 44.1 KHz
Compression mode : Lossy
Stream size : 118 MiB (8%)
Alignment : Split accross interleaves
Interleave, duration : 40 ms (1.00 video frame)
Interleave, preload duratio : 500 ms
Writing library : LAME3.99r
Encoding settings : -m s -V 4 -q 2 -lowpass 17 -b 128

Скриншоты


Альтернативный хост





Показать сообщения:    

Текущее время: 24-Янв 12:13

Часовой пояс: UTC + 3


Вы не можете начинать темы
Вы не можете отвечать на сообщения
Вы не можете редактировать свои сообщения
Вы не можете удалять свои сообщения
Вы не можете голосовать в опросах
Вы не можете прикреплять файлы к сообщениям
Вы не можете скачивать файлы