Эзоп (Олег Рябоконь) [1981, СССР, Фильм-спектакль, DVDRip-AVC] Лентелефильм


 

[Цитировать]

Эзоп
Название театра: Лентелефильм
Страна: СССР
Жанр: Фильм-спектакль
Год выпуска: 1981
Продолжительность: 01:43:46
Язык: Русский
Режиссёр: Олег Рябоконь
В ролях: Александр Калягин, Олег Табаков, Любовь Полищук, Валентин Гафт, Наталья Каресли, Юрий Мальцев, Владислав Пази
Описание: Философ Ксанф возвращается домой из путешествия. По дороге он нашёл уродливого человека по имени Эзоп с кольцом шее. Эзоп становится рабом в доме Ксанфа и с первых дней проявляет удивительные качества мыслителя и сочинителя. Дай ему любую вещь и он через минуту придумает про неё басню, послушать которую собирается весь городской базар. Ученики праздного и недалёкого Ксанфа, вскоре догадываются, что их учитель выдаёт чужие мысли за свои…
Семпл: https://yadi.sk/i/Qo37V53DnvBMn

Качество видео: DVDRip-AVC
Формат видео: MKV
Видео: AVC | 688х528 | 4:3 | 25,000 кадров/сек | 2387 Кбит/сек
Аудио: AC-3 | 48,0 КГц | 448 Кбит/сек | 2 канала

MediaInfoлог

x264 [info]: frame I:771 Avg QP:15.06 size: 74721
x264 [info]: frame P:44824 Avg QP:18.15 size: 29480
x264 [info]: frame B:110064 Avg QP:20.85 size: 4742
Полное имя : K:\Эзоп (1981).mkv
Формат : Matroska
Версия формата : Version 2
Размер файла : 2,10 Гбайт
Продолжительность : 1 ч. 43 м.
Общий поток : 2892 Кбит/сек
Дата кодирования : UTC 2016-01-29 08:58:11
Программа кодирования : mkvmerge v7.9.0 ('Birds') 32bit
Библиотека кодирования : libebml v1.3.1 + libmatroska v1.4.2
Attachments : poster.jpg
Видео
Идентификатор : 1
Формат : AVC
Формат/Информация : Advanced Video Codec
Профиль формата : High@L3.1
Параметр CABAC формата : Да
Параметр ReFrames формата : 10 кадров
Идентификатор кодека : V_MPEG4/ISO/AVC
Продолжительность : 1 ч. 43 м.
Битрейт : 2387 Кбит/сек
Ширина : 688 пикселей
Высота : 528 пикселей
Соотношение сторон : 4:3
Режим частоты кадров : Постоянный
Частота кадров : 25,000 кадров/сек
Цветовое пространство : YUV
Субдискретизация насыщенности : 4:2:0
Битовая глубина : 8 бит
Тип развёртки : Прогрессивная
Бит/(Пиксели*Кадры) : 0.263
Размер потока : 1,73 Гбайт (83%)
Библиотека кодирования : x264 core 148 r2665 a01e339
Настройки программы : cabac=1 / ref=10 / deblock=1:0:0 / analyse=0x3:0x113 / me=umh / subme=9 / psy=1 / psy_rd=0.80:0.05 / mixed_ref=1 / me_range=24 / chroma_me=1 / trellis=2 / 8x8dct=1 / cqm=0 / deadzone=21,11 / fast_pskip=1 / chroma_qp_offset=-3 / threads=4 / lookahead_threads=1 / sliced_threads=0 / nr=0 / decimate=0 / interlaced=0 / bluray_compat=0 / constrained_intra=0 / bframes=8 / b_pyramid=2 / b_adapt=2 / b_bias=0 / direct=1 / weightb=1 / open_gop=0 / weightp=2 / keyint=250 / keyint_min=25 / scenecut=40 / intra_refresh=0 / rc_lookahead=60 / rc=crf / mbtree=1 / crf=18.0 / qcomp=0.70 / qpmin=0 / qpmax=32 / qpstep=4 / ip_ratio=1.40 / aq=1:0.90
Default : Да
Forced : Нет
Аудио
Идентификатор : 2
Формат : AC-3
Формат/Информация : Audio Coding 3
Расширение режима : CM (complete main)
Параметр Endianness формата : Big
Идентификатор кодека : A_AC3
Продолжительность : 1 ч. 43 м.
Вид битрейта : Постоянный
Битрейт : 448 Кбит/сек
Каналы : 2 канала
Расположение каналов : Front: L R
Частота : 48,0 КГц
Частота кадров : 31,250 кадров/сек (1536 spf)
Метод сжатия : С потерями
Размер потока : 333 Мбайт (15%)
Default : Да
Forced : Нет

Скриншот с названием постановки

Скриншоты




Показать сообщения:    

Текущее время: 08-Дек 19:10

Часовой пояс: UTC + 3


Вы не можете начинать темы
Вы не можете отвечать на сообщения
Вы не можете редактировать свои сообщения
Вы не можете удалять свои сообщения
Вы не можете голосовать в опросах
Вы не можете прикреплять файлы к сообщениям
Вы не можете скачивать файлы