Терроризм (Сергей Щипицын) [2011 г., драма, WEB-DLRip] Калининградский областной драматический театр


 

[Цитировать]

Терроризм Название театра: Калининградский областной драматический театр.
Год выпуска: 2011.
Жанр: драма.
Продолжительность: 02:05:15.
Режиссер-постановщик: Сергей Щипицын.
Действующие лица и исполнители:
1-е действие:
Пассажир - Алексей Переберин,
Пассажир 1 - Максим Пацерин,
Пассажир 2 - Антон Захаров,
Люди в военной форме - Максим Махинов, Сергей Борисов, Артем Лернер, Василий Швечков (мл.),
2-е действие:
Мужчина - Александр Федоренко,
Женщина - Марина Юнганс,
3-е действие:
Женщины - Анастасия Амосова, Алена Колесник, Любовь Орлова, Светлана Малиновская,
Менеджер - Геннадий Филиппович,
Сотрудник - Антон Захаров,
Психолог - Максим Пацерин,
4-е действие:
1 женщина - Людмила Казакова,
2 женщина - заслуженная артистка России Надежда Гайдар,
Мальчик - Антон Захаров,
Мужчина - Алексей Переберин,
5-е действие:
Мужчины - Максим Махинов, Сергей Борисов, Артем Лернер, Василий Швечков (мл.),
Полковник МЧС - заслуженный артист России Виталий Баженов,
6-е действие:
Стюардесса - Марина Юнганс,
Пассажир - Алексей Переберин,
Пассажир 1 - Максим Пацерин,
Пассажир 2 - Антон Захаров.
О спектакле:
Где он зарождается, терроризм, где берёт точку отсчёта? Можно ли предотвратить его возникновение? Кто способен на это? Бог, власть, граждане?
В этой театральной истории, в цепочке непредсказуемых событий все так совпало, что неминуемо должно привести к трагедии. Возникает взрыв человеческих отношений - следствие непонимания, отчуждения, неприязни, нелепости людских поступков, ошибок и просто случая. Что и порождает общественное зло, имя которому терроризм. Дома, самолеты, аэропорты сами по себе не взрываются, это обуславливают обстоятельства, которые предопределяют люди в своей реальной обычной жизни.
Есть ли пути, чтобы избежать трагедии?
Об этом вместе с авторами пьесы и артистами Калининградского драматического театра и размышляет Сергей Щипицин. В спектакле есть острый сюжет, неповторимые характеры, незаурядная режиссура, яркая сценография, талантливая актерская игра, т. е. все то, что дает повод пойти в театр и вместе с исполнителями задуматься над нашей короткой, прекрасной, бесценной и такой хрупкой жизнью.

Дополнительная информация:
Страна: Россия .
Авторы: Олег и Владимир Пресняковы.
Режиссер-постановщик и музыкальное решение: Сергей Щипицын.
Художник-постановщик: Артем Агапов.
Художник по костюмам: Марина Агапова.
Хореограф: Резеда Гаянова.
Художник по свету: Людмила Воронина.
Премьера спектакля состоялась 2 апреля 2011 года.

Релиз
Рип sharky.

Качество видео:...WEB-DLRip
Формат:.................AVI
Видео:..704x384 (1.83:1), 25 fps, XviD build 47 ~1520 kbps avg, 0.23 bit/pixel
Аудио:..44.100 kHz, MPEG Layer 3, 2 ch, ~128.00 kbps avg

Отчет MI

Общее
Полное имя : Terrorizm_Kaliningradskij.ODT.2011.XviD.WEB-DLRip.fenixclub.avi
Format : AVI
Format/Info : Audio Video Interleave
File size : 1.45 GiB
Duration : 2h 5mn
Overall bit rate : 1 659 Kbps
Writing application : VirtualDubMod 1.5.10.2 (build 2540/release)
Writing library : VirtualDubMod build 2540/release
Video
ID : 0
Format : MPEG-4 Visual
Format profile : Advanced Simple@L5
Format settings, BVOP : 1
Format settings, QPel : No
Format settings, GMC : No warppoints
Format settings, Matrix : Default (H.263)
Codec ID : XVID
Codec ID/Hint : XviD
Duration : 2h 5mn
Bit rate : 1 521 Kbps
Width : 704 pixels
Height : 384 pixels
Display aspect ratio : 1.85:1
Frame rate : 25.000 fps
Color space : YUV
Chroma subsampling : 4:2:0
Bit depth : 8 bits
Scan type : Progressive
Compression mode : Lossy
Bits/(Pixel*Frame) : 0.225
Stream size : 1.33 GiB (92%)
Writing library : XviD 1.2.0.dev47 (UTC 2006-11-01)
Audio
ID : 1
Format : MPEG Audio
Format version : Version 1
Format profile : Layer 3
Codec ID : 55
Codec ID/Hint : MP3
Duration : 2h 5mn
Bit rate mode : Constant
Bit rate : 128 Kbps
Channel(s) : 2 channels
Sampling rate : 44.1 KHz
Compression mode : Lossy
Stream size : 115 MiB (8%)
Alignment : Split accross interleaves
Interleave, duration : 40 ms (1.00 video frame)
Interleave, preload duratio : 500 ms
Writing library : LAME3.97
Encoding settings : -m s -V 4 -q 2 -lowpass 17 -b 128

Скриншоты


Альтернативный хост





Показать сообщения:    

Текущее время: 10-Дек 23:29

Часовой пояс: UTC + 3


Вы не можете начинать темы
Вы не можете отвечать на сообщения
Вы не можете редактировать свои сообщения
Вы не можете удалять свои сообщения
Вы не можете голосовать в опросах
Вы не можете прикреплять файлы к сообщениям
Вы не можете скачивать файлы