Васса Железнова (Марина Глуховская) [2013, драма, HDRip, 720p]Челябинский государственный академический театр драмы имени Наума Орлова


 

[Цитировать]

Васса Железнова
Название театра: Челябинский государственный академический театр драмы имени Наума Орлова
Жанр: драма
Год выпуска: 2013
Продолжительность: 01:59:34
Режиссёр: Марина Глуховская - Wiki
В ролях: Васса Борисовна Железнова – Екатерина Зенцова
Сергей Петрович Железнов, ее муж, бывший капитан черноморского флота – заслуженный артист России Алексей Мартынов
Прохор Борисович Храпов, ее брат – Владислав Коченда
Наталья Сергеевна, ее дочь – Анастасия Пузырева
Людмила Сергеевна, ее дочь – Екатерина Девятова
Коля Железнов, ее внук – Алеша Грачев
Рахиль Моисеевна (Рашель), ее невестка – Наталья Катасонова
Анна Васильевна Оношенкова, ее воспитанница, гувернантка ее детей – Лариса Меженная
Петр Петрович Мельников, член окружного суда – Денис Кирш, Олег Барышев
Евгений Мельников, его сын, кадет – Дмитрий Писарев
Лиза, горничная – Ксения Горшкова
Поля, горничная – Татьяна Власова
Алексей Пятеркин, бывший матрос Добровольного флота – Бари Салимов
В массовых сценах заняты:
Степан Арефьев, Александр Бауэр, Андрей Бебелес, Татьяна Вяткина, Вадим Долговых, Михаил Зузнев, заслуженный артист России Николай Ларионов, Алла Несова, заслуженный артист России Сергей Оленберг, Николай Осминов, Ольга Рождественская.
Описание: Она молодая успешная женщина.
У нее серьезный бизнес.
Она прекрасная мать, делающая все ради своих детей.
Но время, в которое ей выпало жить, заставляет ее принимать жесткие решения, совершать мужские поступки.
В ее жизни нет места компромиссу, там все на грани и даже за ней.
Доп. информация:
Художник-постановщик, художник по костюмам – Юрий Наместников
Художник по свету – Александр Скрыпник
Хормейстер – Вера Яметова
Репетитор по вокалу – Ирина Сухова
Премера спектакля состоялась 22.03.2013

Семпл: https://yadi.sk/i/OIFaWZq_ntsLo
Качество видео: HDRip
Формат видео: MP4
Видео: MPEG4 Video (H264) 1280x720 25fps 4064kbps (h264 main L3.2, yuv420p)
Аудио: AAC, 48.0 KHz, 192 Kbps, Stereo

MediaInfo

Format : MPEG-4
Format profile : Base Media / Version 2
Codec ID : mp42
File size : 3.56 GiB
Duration : 1h 59mn
Overall bit rate : 4 260 Kbps
Video
ID : 2
Format : AVC
Format/Info : Advanced Video Codec
Format profile : Main@L3.2
Format settings, CABAC : Yes
Format settings, ReFrames : 2 frames
Codec ID : avc1
Codec ID/Info : Advanced Video Coding
Duration : 1h 59mn
Bit rate : 4 065 Kbps
Width : 1 280 pixels
Height : 720 pixels
Display aspect ratio : 16:9
Frame rate mode : Constant
Frame rate : 25.000 fps
Standard : NTSC
Color space : YUV
Chroma subsampling : 4:2:0
Bit depth : 8 bits
Scan type : Progressive
Bits/(Pixel*Frame) : 0.176
Stream size : 3.40 GiB (95%)
Color range : Limited
Audio
ID : 1
Format : AAC
Format/Info : Advanced Audio Codec
Format profile : LC
Codec ID : 40
Duration : 1h 59mn
Bit rate mode : Constant
Bit rate : 192 Kbps
Channel(s) : channel0
Channel(s)_Original : 2 channels
Channel positions : Front: L R
Sampling rate : 48.0 KHz
Compression mode : Lossy
Stream size : 164 MiB (5%)
Language : English

Скриншоты




Показать сообщения:    

Текущее время: 19-Янв 22:17

Часовой пояс: UTC + 3


Вы не можете начинать темы
Вы не можете отвечать на сообщения
Вы не можете редактировать свои сообщения
Вы не можете удалять свои сообщения
Вы не можете голосовать в опросах
Вы не можете прикреплять файлы к сообщениям
Вы не можете скачивать файлы