Привратники / Хранители врат / The Gatekeepers (Дрор Море / Dror Moreh) [2012, Израиль, Франция, Германия, Бельгия, документальный, тайны спецслужб, DVB] VO (24 ДОК)


Статистика раздачи [Обновить пиров]
Размер:  1.61 GB   |    Зарегистрирован:  9 месяцев 23 дня   |    Скачан:  0 раз

Полного источника не было: Никогда

 
   
 
 
 

[Цитировать]

Привратники
The Gatekeepers- Страна: Израиль, Франция, Германия, Бельгия
Жанр: документальный, тайны спецслужб
Год выпуска: 2012
Продолжительность: 01:34:49Перевод: Студийный (одноголосый закадровый) 24 ДОК
Cубтитры: русские
Режиссер: Дрор Море́ / Dror Moreh
В ролях: Юваль Дискин, Авраам Шалом, Яаков Пери, Карми Гилон, Ами Аялон, Ави Дихтер
Описание: В фильме пять бывших и действующий (на момент съёмок) начальник Общей службы безопасности Израиля (ШАБАК) рассказывают об истории своего ведомства в рамках арабо-израильского конфликта. Рассказы от первого лица чередуются с архивными документальными кадрами и компьютерной анимацией.
Доп. информация: Eutelsat 36B (W7) DVB-S
Награды: номинация на премию "Оскар" 2013 за лучший полнометражный документальный фильм; премия "Кинематограф за мир" "самому ценному документальному фильму года" Berlin International Film Festival 2013; премия Национального общества кинокритиков США (2013) в категории "Лучший нехудожественный фильм"; включен в TOP 5 лучших документальных фильмов года National Board of Review (USA) 2012; др. награды.

Качество видео: DVB
Формат видео: MKV
Видео: MPEG Video 2, 720x576@768x576 (4:3), 25 fps, ~2194 kbps avg, 0.212 bit/pixel
Аудио: MPEG Audio 2, 2 ch, 48 kHz, 192 kbps
Формат субтитров: hardsub (неотключаемые)
Доп. информация о субтитрах: форсированные

MediaInfo

ОбщееУникальный идентификатор : 245447801333067216402819631392129868891 (0xB8A786EBE7E061FD86997B9C73B0E45B)Полное имя : F:\My Torrents 3\[apreder]The_Gatekeepers(2012)DVB.mkvФормат : MatroskaВерсия формата : Version 2Размер файла : 1,61 ГбайтПродолжительность : 1 ч. 34 м.Режим общего битрейта : ПеременныйОбщий поток : 2434 Кбит/секНазвание фильма : The GatekeepersДата выпуска : 2013-03-14Дата кодирования : UTC 2016-01-29 14:07:43Программа кодирования : mkvmerge v8.8.0 ('Wind at my back') 64bitБиблиотека кодирования : libebml v1.3.3 + libmatroska v1.4.4Обложка : YesAttachments : cover.jpg / cover_small.jpgDIRECTOR : Dror MorehGENRE : DocumentaryIMDB : tt2309788KEYWORDS : LAW_RATING : 16+
ВидеоИдентификатор : 1Формат : MPEG VideoВерсия формата : Version 2Профиль формата : Main@MainПараметр BVOP формата : ДаПараметр матрицы формата : ВыборочнаяПараметр GOP формата : M=3, N=36Format_Settings_PictureStructure : FrameИдентификатор кодека : V_MPEG2Идентификатор кодека/Информация : MPEG 1 or 2 VideoПродолжительность : 1 ч. 34 м.Вид битрейта : ПеременныйБитрейт : 2194 Кбит/секШирина : 720 пикселейВысота : 576 пикселейСоотношение сторон : 4:3Режим частоты кадров : ПостоянныйЧастота кадров : 25,000 кадров/секСтандарт вещания : PALЦветовое пространство : YUVСубдискретизация насыщенности : 4:2:0Битовая глубина : 8 битТип развёртки : ЧересстрочнаяПорядок развёртки : Верхнее поле первоеМетод сжатия : С потерямиБит/(Пиксели*Кадры) : 0.212Временной код первого кадра : 00:00:00:00Оригинал временного кода : Group of pictures headerРазмер потока : 1,45 Гбайт (90%)Default : ДаForced : Нет
АудиоИдентификатор : 2Формат : MPEG AudioВерсия формата : Version 1Профиль формата : Layer 2Идентификатор кодека : A_MPEG/L2Идентификатор кодека/Подсказка : MP2Продолжительность : 1 ч. 34 м.Вид битрейта : ПостоянныйБитрейт : 192 Кбит/секКаналы : 2 каналаЧастота : 48,0 КГцМетод сжатия : С потерямиРазмер потока : 130 Мбайт (8%)Язык : RussianDefault : ДаForced : Нет

Скриншот c названием фильма

Скриншоты


Резервные скриншоты


[teatrix.ru].t14667.torrent 
Торрент: Зарегистрирован [ 2016-02-09 12:50 ] · AE3A8018A80E4BC8F813C72AA10EF36088AD13C9

Скачать .torrent

Скачать

17 KB

Статус: проверено
Скачан: 0 раз
Размер: 1.61 GB
terms.php



Быстрый ответ

Имя:

      
Для отправки сообщений необходимо включить JavaScript
Показать сообщения:    

Текущее время: 04-Дек 02:55

Часовой пояс: UTC + 3


Вы можете начинать темы
Вы можете отвечать на сообщения
Вы не можете редактировать свои сообщения
Вы не можете удалять свои сообщения
Вы не можете голосовать в опросах
Вы не можете прикреплять файлы к сообщениям
Вы можете скачивать файлы