La Folle Journee "La Nature" (Vivaldi, Рахманинов, Delibes, Smetana, Чайковский) Nemanja Radulovic, Ensemble Double Sens, Orchestre Philharmonique de l'Oural, Dmitri Liss, Lucienne Renaudin-Vary [2016, Classical / Orchestral, HDTV 720p


 

[Цитировать]

La Folle Journée
La Nature
Nemanja Radulović • Ensemble Double Sens
Orchestre Philharmonique de l'Oural • Dmitri Liss

-
Год выпуска: 2016
Лейбл: ARTE France - KM
Жанр: Classical / Orchestral
Продолжительность: 01:32:33
Язык: французский, немецкий (Edouard Fouré Caul-Futy - présentation)
Режиссер: François-René Martin
Исполнители:
Johnny Rasse et Jean Boucault - chanteurs d'oiseaux
Nemanja Radulović - violon et direction
Ensemble Double Sens
Lucienne Renaudin-Vary - trompette
Orchestre Philharmonique de l'Oural
Dmitri Liss - direction
Треклист:
Antonio Vivaldi - Les Quatre Saisons
Сергей Рахманинов - Tout est paisible isi
Leo Delibes - Les Fillesde Cadix
Bedrich Smetana - La Moldau
Петр Чайковский - Le Lac des Cygnes suite opus 20a - extraits
Доп. информация:
7 février 2016 - La Cité des congrès de Nantes
Folle Journée 2016 "La Nature" follejournee.fr
Folle Journée de Nantes 2016 arte.tv
Nemanja Radulović Official Site
Nemanja Radulović from Wikipedia, the free encyclopedia
Качество видео: HDTV 720p
Контейнер: TS
Видео кодек: H.264
Аудио кодек: AC3
Видео поток: 6 815 Kbps, 1280*720 (16:9), at 50.000 fps, AVC (High@L4.0) (CABAC / 4 Ref Frames)
Аудио поток: German, 192 Kbps, 48.0 KHz, 2 channels, MPEG Audio (Version 1) (Layer 2)
Аудио 2: French, 192 Kbps, 48.0 KHz, 2 channels, MPEG Audio (Version 1) (Layer 2)
Аудио 3: Multiple languages, 448 Kbps, 48.0 KHz, 16 bits, 6 channels, AC-3
Аудио 4: 192 Kbps, 48.0 KHz, 2 channels, MPEG Audio (Version 1) (Layer 2)
Источник: Digital Satellite > SkyStar HD2 (TechniSat) > raw data to HDD > Cypheros TS-Doctor > Smart Cutter (cut) > ts

MediaInfo

GeneralID : 8900 (0x22C4)Complete name : C:\arte HD_La Folle Journee ''La Nature'' 2016.tsFormat : MPEG-TSFile size : 5.34 GiBDuration : 1h 32mnOverall bit rate mode : VariableOverall bit rate : 8 258 Kbps
VideoID : 5111 (0x13F7)Menu ID : 10302 (0x283E)Format : AVCFormat/Info : Advanced Video CodecFormat profile : High@L4.0Format settings, CABAC : YesFormat settings, ReFrames : 4 framesFormat settings, GOP : M=8, N=32Codec ID : 27Duration : 1h 32mnBit rate : 6 815 KbpsWidth : 1 280 pixelsHeight : 720 pixelsDisplay aspect ratio : 16:9Frame rate : 50.000 fpsColor space : YUVChroma subsampling : 4:2:0Bit depth : 8 bitsScan type : ProgressiveBits/(Pixel*Frame) : 0.148Stream size : 4.41 GiB (83%)
Audio #1ID : 5112 (0x13F8)Menu ID : 10302 (0x283E)Format : MPEG AudioFormat version : Version 1Format profile : Layer 2Codec ID : 3Duration : 1h 32mnBit rate mode : ConstantBit rate : 192 KbpsChannel(s) : 2 channelsSampling rate : 48.0 KHzCompression mode : LossyDelay relative to video : -9msStream size : 127 MiB (2%)Language : German
Audio #2ID : 5113 (0x13F9)Menu ID : 10302 (0x283E)Format : MPEG AudioFormat version : Version 1Format profile : Layer 2Codec ID : 3Duration : 1h 32mnBit rate mode : ConstantBit rate : 192 KbpsChannel(s) : 2 channelsSampling rate : 48.0 KHzCompression mode : LossyDelay relative to video : -9msStream size : 127 MiB (2%)Language : French
Audio #3ID : 5116 (0x13FC)Menu ID : 10302 (0x283E)Format : AC-3Format/Info : Audio Coding 3Mode extension : CM (complete main)Format settings, Endianness : BigCodec ID : 6Duration : 1h 32mnBit rate mode : ConstantBit rate : 448 KbpsChannel(s) : 6 channelsChannel positions : Front: L C R, Side: L R, LFESampling rate : 48.0 KHzBit depth : 16 bitsCompression mode : LossyDelay relative to video : -8msStream size : 297 MiB (5%)Language : Multiple languages
Audio #4ID : 5117 (0x13FD)Menu ID : 10302 (0x283E)Format : MPEG AudioFormat version : Version 1Format profile : Layer 2Codec ID : 3Duration : 1h 32mnBit rate mode : ConstantBit rate : 192 KbpsChannel(s) : 2 channelsSampling rate : 48.0 KHzCompression mode : LossyDelay relative to video : -23msStream size : 127 MiB (2%)



Показать сообщения:    

Текущее время: 06-Дек 22:55

Часовой пояс: UTC + 3


Вы не можете начинать темы
Вы не можете отвечать на сообщения
Вы не можете редактировать свои сообщения
Вы не можете удалять свои сообщения
Вы не можете голосовать в опросах
Вы не можете прикреплять файлы к сообщениям
Вы не можете скачивать файлы