Аллилуйя / Alleluia (Фабрис Дю Вельц / Fabrice Du Welz) [2014, Бельгия, Франция, драма, гротеск, ужасы, BDRip 1080p] AVO (liosaa) + Sub Rus, Eng + Original Fre


 

[Цитировать]

Аллилуйя / Alléluia
Страна: Бельгия – Франция
Жанр: драма, гротеск, ужасы
Год выпуска: 2014
Продолжительность: 01:33:16
Перевод: Одноголосый закадровый (liosaa)
Cубтитры: русские (liosaa), английские
Оригинальная аудиодорожка: французский
Режиссер: Фабрис Дю Вельц / Fabrice Du Welz
В ролях: Лола Дуэньяс, Лоран Люка, Элена Ногуэрра, Эдит ле Мерди, Энн-Мари Луп
Описание: ....Фабрис дю Вельц предложил свою версию истории американских любовников-убийц Марты Бек и Раймона Фернандеса, которая до этого вдохновляла Леонарда Касла (1969), Артуро Рипштайна (1996) и Тодда Робинсона (2006). Объединяя стилистику американских триллеров и франкофонную культуру, дю Вельц создает поэзию ужасного: камера скользит по коже, всматривается в безумные взгляды, ловит сбивчивое дыхание....
....Мать-одиночка Глория встречается с мужчиной, который нашел ее на сайте знакомств. Ужин, вино, секс – все настолько безупречно, что наутро впечатлительная Глория уже не может представить свою жизнь без Мишеля, который оказывается профессиональным жиголо. Но страсть уже полностью завладела Глорией – чтобы не расставаться с Мишелем, она становится его верной компаньоншей. И только ее неконтролируемая ревность мешает проворачивать аферы с доверчивыми вдовами бескровно…

Доп. информация: ....рип с германского БЛЮра нашёл в сети, DTS пересобрал путём наложения чистого голоса на центральный канал (в переводе подкорректировал несколько финальных фраз: когда-то ввели в заблуждение испанские титры, на тот момент единственно доступные)....
**СЭМПЛ
**DVDrip + интересные комменты
Тип релиза: BDRip 1080p
Контейнер: MKV
Видео: MPEG 4-AVC, 1920x816p (2.35:1), 24.000 fps, 8555 kbps
Аудио 1: DTS 5.1, 48 kHz, 24 bit, 1509 kbps (рус)
Аудио 2: DTS 5.1, 48 kHz, 24 bit, 1509 kbps (fre)
Формат субтитров: softsub (SRT)

MediaInfo

Формат : Matroska
Версия формата : Version 2
Размер файла : 6,85 Гбайт
Продолжительность : 1 ч. 33 м.
Общий поток : 10,5 Мбит/сек
Дата кодирования : UTC 2016-02-03 18:10:12
Программа кодирования : mkvmerge v2.9.8 ('C'est le bon') built on Aug 13 2009 12:49:06
Библиотека кодирования : libebml v0.7.7 + libmatroska v0.8.1
DURATION : 01:26:14.267000000
NUMBER_OF_FRAMES : 659
NUMBER_OF_BYTES : 17023
_STATISTICS_WRITING_APP : mkvmerge v8.3.0 ('Over the Horizon') 64bit
_STATISTICS_WRITING_DATE_UTC : 2015-10-21 09:56:45
_STATISTICS_TAGS : BPS DURATION NUMBER_OF_FRAMES NUMBER_OF_BYTES
Видео
Идентификатор : 1
Формат : AVC
Формат/Информация : Advanced Video Codec
Профиль формата : High@L4.1
Параметр CABAC формата : Да
Параметр ReFrames формата : 5 кадров
Идентификатор кодека : V_MPEG4/ISO/AVC
Продолжительность : 1 ч. 33 м.
Битрейт : 8555 Кбит/сек
Ширина : 1920 пикселей
Высота : 816 пикселей
Соотношение сторон : 2,35:1
Режим частоты кадров : Постоянный
Частота кадров : 24,000 кадра/сек
Цветовое пространство : YUV
Субдискретизация насыщенности : 4:2:0
Битовая глубина : 8 бит
Тип развёртки : Прогрессивная
Бит/(Пиксели*Кадры) : 0.228
Размер потока : 5,44 Гбайт (79%)
Библиотека кодирования : x264 core 148 r2638 7599210
Настройки программы : cabac=1 / ref=5 / deblock=1:0:0 / analyse=0x3:0x133 / me=umh / subme=7 / psy=1 / psy_rd=1.00:0.00 / mixed_ref=1 / me_range=16 / chroma_me=1 / trellis=1 / 8x8dct=1 / cqm=0 / deadzone=21,11 / fast_pskip=0 / chroma_qp_offset=-2 / threads=18 / lookahead_threads=3 / sliced_threads=0 / nr=0 / decimate=1 / interlaced=0 / bluray_compat=0 / constrained_intra=0 / bframes=3 / b_pyramid=2 / b_adapt=2 / b_bias=0 / direct=3 / weightb=1 / open_gop=0 / weightp=2 / keyint=250 / keyint_min=23 / scenecut=40 / intra_refresh=0 / rc_lookahead=50 / rc=2pass / mbtree=1 / bitrate=8555 / ratetol=1.0 / qcomp=0.60 / qpmin=0 / qpmax=69 / qpstep=4 / cplxblur=20.0 / qblur=0.5 / ip_ratio=1.40 / aq=1:1.00
Язык : English
Default : Нет
Forced : Нет
DURATION : 01:33:16.921000000
NUMBER_OF_FRAMES : 134326
NUMBER_OF_BYTES : 5981750818
_STATISTICS_WRITING_APP : mkvmerge v8.3.0 ('Over the Horizon') 64bit
_STATISTICS_WRITING_DATE_UTC : 2015-10-21 09:56:45
_STATISTICS_TAGS : BPS DURATION NUMBER_OF_FRAMES NUMBER_OF_BYTES
Аудио #1
Идентификатор : 3
Формат : DTS
Формат/Информация : Digital Theater Systems
Режим : 16
Параметр Endianness формата : Big
Идентификатор кодека : A_DTS
Продолжительность : 1 ч. 33 м.
Вид битрейта : Постоянный
Битрейт : 1509 Кбит/сек
Каналы : 6 каналов
Расположение каналов : Front: L C R, Side: L R, LFE
Частота : 48,0 КГц
Битовая глубина : 24 бит
Метод сжатия : С потерями
Размер потока : 1007 Мбайт (14%)
Заголовок : Закадровый *liosaa*
Язык : Russian
Default : Да
Forced : Нет
Аудио #2
Идентификатор : 3
Формат : DTS
Формат/Информация : Digital Theater Systems
Режим : 16
Параметр Endianness формата : Big
Идентификатор кодека : A_DTS
Продолжительность : 1 ч. 33 м.
Вид битрейта : Постоянный
Битрейт : 1509 Кбит/сек
Каналы : 6 каналов
Расположение каналов : Front: L C R, Side: L R, LFE
Частота : 48,0 КГц
Битовая глубина : 24 бит
Метод сжатия : С потерями
Задержка видео : 11 мс.
Размер потока : 1007 Мбайт (14%)
Заголовок : Original
Язык : French
Default : Нет
Forced : Нет
Текст #1
Идентификатор : 4
Формат : UTF-8
Идентификатор кодека : S_TEXT/UTF8
Идентификатор кодека/Информация : UTF-8 Plain Text
Заголовок : *liosaa*
Язык : Russian
Default : Нет
Forced : Нет
Текст #2
Идентификатор : 5
Формат : UTF-8
Идентификатор кодека : S_TEXT/UTF8
Идентификатор кодека/Информация : UTF-8 Plain Text
Язык : English
Default : Нет
Forced : Нет
Меню
00:00:00.000 : en:00:00:00.000
00:08:46.833 : en:00:08:46.833
00:16:54.625 : en:00:16:54.625
00:21:29.958 : en:00:21:29.958
00:27:03.625 : en:00:27:03.625
00:35:44.917 : en:00:35:44.917
00:40:00.625 : en:00:40:00.625
00:47:03.833 : en:00:47:03.833
00:53:16.417 : en:00:53:16.417
01:01:57.958 : en:01:01:57.958
01:09:56.417 : en:01:09:56.417
01:17:58.958 : en:01:17:58.958
01:26:38.958 : en:01:26:38.958

Скриншоты




Показать сообщения:    

Текущее время: 02-Дек 23:11

Часовой пояс: UTC + 3


Вы не можете начинать темы
Вы не можете отвечать на сообщения
Вы не можете редактировать свои сообщения
Вы не можете удалять свои сообщения
Вы не можете голосовать в опросах
Вы не можете прикреплять файлы к сообщениям
Вы не можете скачивать файлы