Мечтатели / The Dreamers (Бернардо Бертолуччи / Bernardo Bertolucci) [2003, Великобритания, Франция, Италия, драма, мелодрама, BDRip 1080p] 2x MVO (R5, R7) + Ukr + Original Eng + Sub (Rus, Eng)


 

[Цитировать]

Мечтатели / The Dreamers- Год выпуска: 2003
Выпущено: Великобритания, Франция, Италия
Жанр: драма, мелодрама
Продолжительность: 01:54:37
Перевод: Профессиональный (многоголосый, закадровый) R5
+ Профессиональный (многоголосый, закадровый) R7
Оригинальная звуковая дорожка: English
Субтитры: Russian, English-Режиссер: Бернардо Бертолуччи / Bernardo Bertolucci
В ролях: Майкл Питт, Ева Грин, Луи Гаррель, Анна Чэнселлор, Робен Ренуччи, Жан-Пьер Кальфон, Жан-Пьер Лео, Флориан Кадиу, Пьер Ханчиссе, Валентен Мерле
О фильме: Париж, 1968 год - демонстрации студентов, баррикады на улицах, в воздухе пахнет революцией: Но у трех молодых людей - своя реальность, свой мир - мир кино. Дни и ночи напролет они смотрят фильмы и не выходят из дома…
Кино стало их жизнью. Сначала это просто увлечение, потом - сложная паутина психологических и сексуальных отношений. Между тем, беспорядки на улицах Парижа достигают своей кульминации...-EA!
Формат: MKV
Тип релиза: BDRip 1080p
Источник: 1080p KOR Blu-ray AVC DTS-HD MA 5.1
Видео: 1916x1074 at 23.976 fps, x264@L4.1, crf, ~18880 kbps avg
Аудио #1: Russian: 48 kHz, DTS, 3/2 (L,C,R,l,r) + LFE ch, ~1509 kbps avg |Многоголосый закадровый, R5|
Аудио #2: Russian: 48 kHz, AC3, 3/2 (L,C,R,l,r) + LFE ch, ~384kbps avg |Многоголосый закадровый, R7|
Аудио #3: Ukrainian: 48 kHz, AC3, 2/0 (L,R) ch, ~192 kbps avg |Двухголосый закадровый, ТВі|
Аудио #4: English: 48 kHz, DTS, 3/2 (L,C,R,l,r) + LFE ch, ~1509 kbps avg
Семпл-

Source vs Encode






-

mInfo

Полное имя : D:\The Dreamers.2003.1080p.BluRay2xRus.Eng.-EA.mkv
Формат : Matroska
Версия формата : Version 4 / Version 2
Размер файла : 18,0 Гбайт
Продолжительность : 1 ч. 54 м.
Общий поток : 22,5 Мбит/сек
Название фильма : Bernardo Bertolucci - The Dreamers (2003)
Дата кодирования : UTC 2016-02-06 13:44:25
Программа кодирования : mkvmerge v7.0.0 ('Where We Going') 32bit built on Jun 9 2014 15:08:34
Библиотека кодирования : libebml v1.3.0 + libmatroska v1.4.1
Attachements : cover.jpg
_STATISTICS_WRITING_APP : mkvmerge v7.0.0 ('Where We Going') 32bit built on Jun 9 2014 15:08:34
_STATISTICS_WRITING_DATE_UTC : 2016-02-06 13:44:25
_STATISTICS_TAGS : BPS DURATION NUMBER_OF_FRAMES NUMBER_OF_BYTES
DURATION : 01:45:27.196000000
NUMBER_OF_FRAMES : 1039
NUMBER_OF_BYTES : 37296
Видео
Идентификатор : 1
Формат : AVC
Формат/Информация : Advanced Video Codec
Профиль формата : High@L4.1
Параметр CABAC формата : Да
Параметр ReFrames формата : 4 кадра
Идентификатор кодека : V_MPEG4/ISO/AVC
Продолжительность : 1 ч. 54 м.
Битрейт : 18,4 Мбит/сек
Ширина : 1916 пикселей
Высота : 1074 пикселя
Соотношение сторон : 16:9
Режим частоты кадров : Постоянный
Частота кадров : 23,976 кадра/сек
Цветовое пространство : YUV
Субдискретизация насыщенности : 4:2:0
Битовая глубина : 8 бит
Тип развёртки : Прогрессивная
Бит/(Пиксели*Кадры) : 0.374
Размер потока : 14,8 Гбайт (82%)
Заголовок : Release for HDCLUB
Библиотека кодирования : x264 core 142 r2431+42 c69a006 tMod [8-bit@all X86_64]
Настройки программы : cabac=1 / ref=4 / deblock=1:-3:-3 / analyse=0x3:0x133 / me=umh / subme=10 / psy=1 / fade_compensate=0.00 / psy_rd=1.10:0.00 / mixed_ref=1 / me_range=32 / chroma_me=1 / trellis=2 / 8x8dct=1 / cqm=0 / deadzone=21,11 / fast_pskip=0 / chroma_qp_offset=-2 / threads=12 / lookahead_threads=3 / sliced_threads=0 / nr=0 / decimate=0 / interlaced=0 / bluray_compat=0 / constrained_intra=0 / fgo=0 / bframes=10 / b_pyramid=2 / b_adapt=2 / b_bias=0 / direct=3 / weightb=1 / open_gop=0 / weightp=2 / keyint=240 / keyint_min=23 / scenecut=40 / intra_refresh=0 / rc_lookahead=50 / rc=crf / mbtree=0 / crf=19.6000 / qcomp=0.75 / qpmin=0:0:0 / qpmax=69:69:69 / qpstep=4 / vbv_maxrate=62500 / vbv_bufsize=78125 / crf_max=0.0 / nal_hrd=none / filler=0 / ip_ratio=1.20 / pb_ratio=1.10 / aq=1:0.55 / aq-sensitivity=10.00 / aq-factor=1.00:1.00:1.00 / aq2=1:0.45 / aq2-sensitivity=15.00 / aq2-factor=1.00:1.00:1.00 / aq3=0
Язык : English
Default : Да
Forced : Нет
Основные цвета : BT.709
Характеристики трансфера : BT.709
Коэффициенты матрицы : BT.709
colour_range : Limited
_STATISTICS_WRITING_APP : mkvmerge v7.0.0 ('Where We Going') 32bit built on Jun 9 2014 15:08:34
_STATISTICS_WRITING_DATE_UTC : 2016-02-06 13:44:25
_STATISTICS_TAGS : BPS DURATION NUMBER_OF_FRAMES NUMBER_OF_BYTES
DURATION : 01:54:37.329000000
NUMBER_OF_FRAMES : 164891
NUMBER_OF_BYTES : 16230525833
Аудио #1
Идентификатор : 2
Формат : DTS
Формат/Информация : Digital Theater Systems
Режим : 16
Параметр Endianness формата : Big
Идентификатор кодека : A_DTS
Продолжительность : 1 ч. 54 м.
Вид битрейта : Постоянный
Битрейт : 1509 Кбит/сек
Каналы : 6 каналов
Расположение каналов : Front: L C R, Side: L R, LFE
Частота : 48,0 КГц
Битовая глубина : 24 бит
Метод сжатия : С потерями
Размер потока : 1,21 Гбайт (7%)
Заголовок : MVO
Язык : Russian
Default : Да
Forced : Нет
Аудио #2
Идентификатор : 3
Формат : AC-3
Формат/Информация : Audio Coding 3
Расширение режима : CM (complete main)
Параметр Endianness формата : Big
Идентификатор кодека : A_AC3
Продолжительность : 1 ч. 54 м.
Вид битрейта : Постоянный
Битрейт : 384 Кбит/сек
Каналы : 6 каналов
Расположение каналов : Front: L C R, Side: L R, LFE
Частота : 48,0 КГц
Битовая глубина : 16 бит
Метод сжатия : С потерями
Размер потока : 315 Мбайт (2%)
Заголовок : MVO, R7
Язык : Russian
Default : Нет
Forced : Нет
Аудио #3
Идентификатор : 4
Формат : AC-3
Формат/Информация : Audio Coding 3
Расширение режима : CM (complete main)
Параметр Endianness формата : Big
Идентификатор кодека : A_AC3
Продолжительность : 1 ч. 54 м.
Вид битрейта : Постоянный
Битрейт : 192 Кбит/сек
Каналы : 2 канала
Расположение каналов : Front: L R
Частота : 48,0 КГц
Битовая глубина : 16 бит
Метод сжатия : С потерями
Размер потока : 157 Мбайт (1%)
Заголовок : DVO, ТВі
Язык : Ukrainian
Default : Нет
Forced : Нет
Аудио #4
Идентификатор : 5
Формат : DTS
Формат/Информация : Digital Theater Systems
Режим : 16
Параметр Endianness формата : Big
Идентификатор кодека : A_DTS
Продолжительность : 1 ч. 54 м.
Вид битрейта : Постоянный
Битрейт : 1509 Кбит/сек
Каналы : 6 каналов
Расположение каналов : Front: L C R, Side: L R, LFE
Частота : 48,0 КГц
Битовая глубина : 24 бит
Метод сжатия : С потерями
Размер потока : 1,21 Гбайт (7%)
Язык : English
Default : Нет
Forced : Нет
Текст #1
Идентификатор : 6
Формат : UTF-8
Идентификатор кодека : S_TEXT/UTF8
Идентификатор кодека/Информация : UTF-8 Plain Text
Язык : Russian
Default : Нет
Forced : Нет
Текст #2
Идентификатор : 7
Формат : UTF-8
Идентификатор кодека : S_TEXT/UTF8
Идентификатор кодека/Информация : UTF-8 Plain Text
Язык : English
Default : Нет
Forced : Нет
Меню #1
00:00:00.000 : en:Main Titles
00:01:34.761 : en:The American Cinephile
00:05:29.329 : en:Theo & Isabelle
00:11:43.328 : en:Dinner with the Family
00:16:02.545 : en:Everything Fits Together
00:21:38.255 : en:Spending the Night
00:27:19.555 : en:Visions of Garbo
00:30:10.475 : en:Roommates
00:33:31.885 : en:Keaton or Chaplin?
00:35:15.780 : en:The Bande à Part Test
00:38:05.325 : en:One of Us
00:42:53.446 : en:The Film & the Forfeit
00:48:38.666 : en:Raising the Stakes
00:59:16.887 : en:What Would You Do?
01:02:44.052 : en:The Same as Twins
01:05:36.057 : en:Lunch
01:10:10.706 : en:Complicated
01:11:33.956 : en:Three in a Tub
01:15:21.684 : en:Proof of Love
01:20:19.523 : en:The Date
01:24:43.787 : en:The Secret Side
01:29:40.667 : en:Distinct Contradictions
01:34:01.177 : en:It's Forever...
01:37:10.450 : en:The Naked Truth
01:40:40.618 : en:To Die Like Mouchette
01:44:29.054 : en:Revolution
01:46:14.910 : en:Love or Violence?
01:48:55.821 : en:End Titles
Меню #2
00:00:00.097 : en:00:00:00.097
-



Показать сообщения:    

Текущее время: 03-Дек 05:28

Часовой пояс: UTC + 3


Вы не можете начинать темы
Вы не можете отвечать на сообщения
Вы не можете редактировать свои сообщения
Вы не можете удалять свои сообщения
Вы не можете голосовать в опросах
Вы не можете прикреплять файлы к сообщениям
Вы не можете скачивать файлы