Цветок / Flower / Hana The Tale of a Reluctant Samurai / Hana Yori Mo Naho (Корэ-эда Хирокадзу / Hirokazu Koreeda) [2006, Япония, комедия, драма, HDTVRip 720p] Sub Rus, Eng + Original Jap


 

[Цитировать]

Цветок / Flower / Hana The Tale of a Reluctant Samurai / Hana Yori Mo Naho
Страна: Япония
Студия: Shôchiku Eiga
Жанр: комедия, драма
Год выпуска: 2006
Продолжительность: 02:07:56
Перевод: Субтитры (перевод: neko, редакторы: Bruce, Tora Asakura, Корректор: Yule)
Cубтитры: русские, английские
Оригинальная аудиодорожка: японский
Режиссер: Корэ-эда Хирокадзу / Hirokazu Koreeda
В ролях: Дзюнити Окада, Рии Миядзава, Таданобу Асано, Дзюн Кунимура, Ренцзи Исибаси, Рё Касе, Сусуму Терадзима, Юи Нацукава, Кеничи Эндо и др.
Описание: Юный самурай должен отомстить за своего отца. Но проблема в том, что он совершенно не умеет обращаться с мечом. К тому же, он слишком ценит свою жизнь.
Ему предстоит сделать выбор между долгом самурая и благородной смертью и будущей жизнью, которая может измениться в любой момент.
II Сэмпл II IMDB II
Релиз группа:

Тип релиза: HDTVRip 720p
Контейнер: MKV
Видео: AVC / 1280x690 / 1.85:1 / 23.976fps / Bit rate 6000Kbps / High@L4.1
Аудио: AAC-LC / 48.0 KHz / 6ch. / 384kbps / jap
Формат субтитров: softsub (SRT)

MediaInfo

Общее
Уникальный идентификатор : 199081584238832949578163841425616630921 (0x95C5B7EC167104DFBFEA33F1BC477489)
Полное имя : E:\!_HD\Hana.The.Tale.of.a.Reluctant.Samurai.2006.HDTVRip.720p_by_vedigo.mkv
Формат : Matroska
Версия формата : Version 4 / Version 2
Размер файла : 5,70 Гбайт
Продолжительность : 2 ч. 8 м.
Общий поток : 6370 Кбит/сек
Название фильма : Hana.The.Tale.of.a.Reluctant.Samurai.2006.HDTVRip.720p_by_vedigo
Дата кодирования : UTC 2016-02-04 01:32:50
Программа кодирования : mkvmerge v8.8.0 ('Wind at my back') 64bit
Библиотека кодирования : libebml v1.3.3 + libmatroska v1.4.4
Видео
Идентификатор : 1
Формат : AVC
Формат/Информация : Advanced Video Codec
Профиль формата : High@L4.1
Параметр CABAC формата : Да
Параметр ReFrames формата : 9 кадров
Идентификатор кодека : V_MPEG4/ISO/AVC
Продолжительность : 2 ч. 7 м.
Битрейт : 6000 Кбит/сек
Ширина : 1280 пикселей
Высота : 690 пикселей
Соотношение сторон : 1,85:1
Режим частоты кадров : Постоянный
Частота кадров : 23,976 (24000/1001) кадра/сек
Цветовое пространство : YUV
Субдискретизация насыщенности : 4:2:0
Битовая глубина : 8 бит
Тип развёртки : Прогрессивная
Бит/(Пиксели*Кадры) : 0.283
Размер потока : 5,36 Гбайт (94%)
Заголовок : Hana.The.Tale.of.a.Reluctant.Samurai.2006.HDTVRip.720p_by_vedigo
Библиотека кодирования : x264 core 148 r2665 a01e339
Настройки программы : cabac=1 / ref=9 / deblock=1:-3:-3 / analyse=0x3:0x133 / me=umh / subme=11 / psy=0 / mixed_ref=1 / me_range=48 / chroma_me=1 / trellis=2 / 8x8dct=1 / cqm=0 / deadzone=21,11 / fast_pskip=0 / chroma_qp_offset=0 / threads=12 / lookahead_threads=3 / sliced_threads=0 / nr=0 / decimate=1 / interlaced=0 / bluray_compat=0 / constrained_intra=0 / bframes=10 / b_pyramid=2 / b_adapt=2 / b_bias=0 / direct=3 / weightb=1 / open_gop=0 / weightp=2 / keyint=250 / keyint_min=23 / scenecut=40 / intra_refresh=0 / rc_lookahead=40 / rc=2pass / mbtree=0 / bitrate=6000 / ratetol=1.0 / qcomp=0.60 / qpmin=0 / qpmax=69 / qpstep=4 / cplxblur=20.0 / qblur=0.5 / vbv_maxrate=50000 / vbv_bufsize=62500 / nal_hrd=none / filler=0 / ip_ratio=1.40 / pb_ratio=1.30 / aq=1:0.90
Язык : Japanese
Default : Да
Forced : Нет
Аудио
Идентификатор : 2
Формат : AAC
Формат/Информация : Advanced Audio Codec
Профиль формата : LC
Идентификатор кодека : A_AAC
Продолжительность : 2 ч. 7 м.
Битрейт : 384 Кбит/сек
Каналы : 6 каналов
Расположение каналов : Front: L C R, Side: L R, LFE
Частота : 48,0 КГц
Частота кадров : 46,875 кадров/сек (1024 spf)
Метод сжатия : С потерями
Размер потока : 348 Мбайт (6%)
Заголовок : original
Язык : Japanese
Default : Да
Forced : Нет
Текст #1
Идентификатор : 3
Формат : UTF-8
Идентификатор кодека : S_TEXT/UTF8
Идентификатор кодека/Информация : UTF-8 Plain Text
Продолжительность : 2 ч. 7 м.
Битрейт : 79 бит/сек
Count of elements : 1576
Размер потока : 74,7 Кбайт (0%)
Заголовок : subtitle rus
Язык : Russian
Default : Да
Forced : Нет
Текст #2
Идентификатор : 4
Формат : UTF-8
Идентификатор кодека : S_TEXT/UTF8
Идентификатор кодека/Информация : UTF-8 Plain Text
Продолжительность : 2 ч. 7 м.
Битрейт : 41 бит/сек
Count of elements : 1343
Размер потока : 38,7 Кбайт (0%)
Заголовок : subtitle eng
Язык : English
Default : Нет
Forced : Нет

Скриншоты


Сравнение с исходником





x264 info

x264 [info]: using SAR=1/1
x264 [info]: using cpu capabilities: MMX2 SSE2Fast SSSE3 SSE4.2 AVX
x264 [info]: profile High, level 4.1
x264 [info]: frame I:992 Avg QP:13.32 size:123750
x264 [info]: frame P:30621 Avg QP:15.46 size: 59811
x264 [info]: frame B:152448 Avg QP:17.40 size: 24949
x264 [info]: consecutive B-frames: 0.9% 0.8% 1.7% 16.3% 8.7% 12.0% 8.4% 46.4% 4.0% 0.7% 0.1%
x264 [info]: mb I I16..4: 25.0% 41.6% 33.4%
x264 [info]: mb P I16..4: 9.6% 13.4% 10.3% P16..4: 24.5% 26.8% 14.3% 1.0% 0.0% skip: 0.1%
x264 [info]: mb B I16..4: 4.5% 3.4% 2.0% B16..8: 26.9% 27.8% 5.8% direct:10.8% skip:18.8% L0:44.0% L1:37.6% BI:18.4%
x264 [info]: 8x8 transform intra:37.1% inter:33.8%
x264 [info]: direct mvs spatial:98.2% temporal:1.8%
x264 [info]: coded y,uvDC,uvAC intra: 89.7% 56.5% 31.1% inter: 42.7% 19.9% 1.7%
x264 [info]: i16 v,h,dc,p: 7% 6% 63% 24%
x264 [info]: i8 v,h,dc,ddl,ddr,vr,hd,vl,hu: 22% 14% 26% 5% 6% 7% 6% 7% 8%
x264 [info]: i4 v,h,dc,ddl,ddr,vr,hd,vl,hu: 25% 12% 31% 5% 6% 7% 5% 5% 4%
x264 [info]: i8c dc,h,v,p: 31% 40% 18% 10%
x264 [info]: Weighted P-Frames: Y:2.0% UV:0.9%
x264 [info]: ref P L0: 30.4% 7.4% 21.6% 8.2% 9.8% 6.0% 7.5% 3.8% 5.1% 0.1% 0.0%
x264 [info]: ref B L0: 70.0% 12.2% 6.0% 3.9% 2.9% 2.8% 1.5% 0.7%
x264 [info]: ref B L1: 94.4% 5.6%
x264 [info]: kb/s:6000.04

Информация об исходнике

Видео
Идентификатор : 4097 (0x1001)
Идентификатор меню : 255 (0xFF)
Формат : MPEG Video
Версия формата : Version 2
Профиль формата : Main@High
Параметр BVOP формата : Да
Параметр матрицы формата : Выборочная
Параметр GOP формата : M=3, N=15
Структура изображения : Frame
Идентификатор кодека : 2
Продолжительность : 2 ч. 7 м.
Вид битрейта : Переменный
Битрейт : 14,1 Мбит/сек
Максимальный битрейт : 24,0 Мбит/сек
Ширина : 1440 пикселей
Высота : 1080 пикселей
Соотношение сторон : 16:9
Частота кадров : 29,970 (30000/1001) кадров/сек
Цветовое пространство : YUV
Субдискретизация насыщенности : 4:2:0
Битовая глубина : 8 бит
Тип развёртки : Чересстрочная
Порядок развёртки : Верхнее поле первое
Метод сжатия : С потерями
Временной код первого кадра : 01:56:37:19
Оригинал временного кода : Group of pictures header
GOP, открыто/закрыто : Открыто
Основные цвета : BT.709
Характеристики трансфера : BT.709
Коэффициенты матрицы : BT.709



Показать сообщения:    

Текущее время: 10-Дек 11:56

Часовой пояс: UTC + 3


Вы не можете начинать темы
Вы не можете отвечать на сообщения
Вы не можете редактировать свои сообщения
Вы не можете удалять свои сообщения
Вы не можете голосовать в опросах
Вы не можете прикреплять файлы к сообщениям
Вы не можете скачивать файлы