Страна ОЗ (Василий Сигарев) [2015, Россия, комедия, WEB-DL 1080p] Original Rus


 

[Цитировать]

Страна ОЗ
Страна: Россия
Студия: Белое Зеркало
Жанр: комедия
Год выпуска: 2015
Продолжительность: 01:39:48
Перевод: Не требуется
Cубтитры: нет
Оригинальная аудиодорожка: русский
Режиссер: Василий Сигарев
В ролях: Яна Троянова, Гоша Куценко, Андрей Ильенков, Александр Баширов, Евгений Цыганов, Владимир Симонов, Инна Чурикова, Светлана Камынина, Юлия Снигирь, Алиса Хазанова
Описание: Новый год в России — стихия неуправляемая и беспощадная. Именно в это волшебное время непостижимый колорит русской души проявляет себя во всей красе. Пока жители Екатеринбурга готовятся к главному национальному празднику и шинкуют оливье, Ленка Шабадинова спешит до боя курантов принять смену в киоске на улице Торфорезов. Но она даже не подозревает, что новогодняя ночь приготовила для нее свой безумный сценарий.


Тип релиза: WEB-DL 1080p
Контейнер: MKV
Видео: MPEG4 AVC Video, H264, 16:9, 1920x1034, 24 fps, 5023 kbps
Аудио: Русский AC3, 6 ch, 384 kbps, 16 bits, 48.0 KHz - оригинал

MediaInfo

General
Unique ID : 192160348480638926525886714118319044123 (0x9090BCA7334A2B09BE7E450DB48EF61B)
Complete name : C:\Users\Вася\Documents\7tRaNa.0zz.2015.O.WEB-DL.1080p.mkv
Format : Matroska
Format version : Version 4 / Version 2
File size : 3.85 GiB
Duration : 1h 39mn
Overall bit rate : 5 517 Kbps
Encoded date : UTC 2015-12-25 20:01:54
Writing application : mkvmerge v8.3.0 ('Over the Horizon') 64bit
Writing library : libebml v1.3.1 + libmatroska v1.4.2
DURATION : 01:39:48.000000000
NUMBER_OF_FRAMES : 187125
NUMBER_OF_BYTES : 287424000
_STATISTICS_WRITING_APP : mkvmerge v8.3.0 ('Over the Horizon') 64bit
_STATISTICS_WRITING_DATE_UTC : 2015-12-25 20:01:54
_STATISTICS_TAGS : BPS DURATION NUMBER_OF_FRAMES NUMBER_OF_BYTES
Video
ID : 1
Format : AVC
Format/Info : Advanced Video Codec
Format profile : High@L4.0
Format settings, CABAC : Yes
Format settings, ReFrames : 4 frames
Codec ID : V_MPEG4/ISO/AVC
Duration : 1h 39mn
Bit rate : 5 023 Kbps
Width : 1 920 pixels
Height : 1 034 pixels
Display aspect ratio : 1.85:1
Frame rate mode : Constant
Frame rate : 24.000 fps
Color space : YUV
Chroma subsampling : 4:2:0
Bit depth : 8 bits
Scan type : Progressive
Bits/(Pixel*Frame) : 0.105
Stream size : 3.50 GiB (91%)
Language : English
Default : Yes
Forced : No
Color primaries : BT.709
Transfer characteristics : BT.709
Matrix coefficients : BT.709
Audio
ID : 2
Format : AC-3
Format/Info : Audio Coding 3
Mode extension : CM (complete main)
Format settings, Endianness : Big
Codec ID : A_AC3
Duration : 1h 39mn
Bit rate mode : Constant
Bit rate : 384 Kbps
Channel count : 6 channels
Channel positions : Front: L C R, Side: L R, LFE
Sampling rate : 48.0 KHz
Bit depth : 16 bits
Compression mode : Lossy
Stream size : 274 MiB (7%)
Language : Russian
Default : Yes
Forced : No
Menu
00:00:00.000 : en:Глава 1
00:05:34.000 : en:Глава 2
00:11:06.000 : en:Глава 3
00:18:00.000 : en:Глава 4
00:25:01.000 : en:Глава 5
00:30:02.000 : en:Глава 6
00:35:58.000 : en:Глава 7
00:41:20.000 : en:Глава 8
00:47:03.000 : en:Глава 9
00:54:18.000 : en:Глава 10
00:59:58.000 : en:Глава 11
01:05:34.000 : en:Глава 12
01:10:55.000 : en:Глава 13
01:16:00.000 : en:Глава 14
01:22:47.000 : en:Глава 15
01:28:12.000 : en:Глава 16
01:33:39.000 : en:Глава 17

Скриншоты




Показать сообщения:    

Текущее время: 05-Дек 11:34

Часовой пояс: UTC + 3


Вы не можете начинать темы
Вы не можете отвечать на сообщения
Вы не можете редактировать свои сообщения
Вы не можете удалять свои сообщения
Вы не можете голосовать в опросах
Вы не можете прикреплять файлы к сообщениям
Вы не можете скачивать файлы