Куклы / Dolls (Такеши Китано / Takeshi Kitano) [2002, Япония, Философская драма, Мелодрама, DVD9 (Custom)] DVO (Ruscico) + DVO + MVO + Sub Eng, Rus + Original Jap / Artificial Eye #259


Статистика раздачи [Обновить пиров]
Размер:  7.28 GB   |    Зарегистрирован:  11 месяцев 10 дней   |    Скачан:  1 раз

Полного источника не было: 11 месяцев 9 дней

 
   
 
 
 

[Цитировать]

Куклы / Dolls / Artificial Eye #259
Страна:Япония Студия:Bandai Visual Co. Ltd., Office Kitano, Tokyo FM Broadcasting Co. Ltd., TV Tokyo.Жанр:Философская драма, МелодрамаГод выпуска:2002
Продолжительность:01:48:55Производство:Artificial Eye Перевод 1:Профессиональный (двухголосый закадровый)RuscicoПеревод 2:Профессиональный (двухголосый закадровый)Перевод 3:Профессиональный (многоголосый закадровый)Cубтитры:Английские, Русские
Премьера (мир):5.09.2002
Режиссер:Такеши Китано / Takeshi KitanoВ ролях:Михо Канно--Савако
Хидэтоси Нисидзима--Мацумото
Тацуя Михаси--Старик Хиро
Тиэко Мацубара--Рёко
Куоко Фукада--Харуна Ямагути
Цутому Такэсигэ--Нукуи
Описание:Замысловатая мозаика из трёх трагических историй о неосуществимости любви, снятая в эстетике традиционного японского театра кукол "Бунраку". Мацумото и Савако еще недавно были счастливой парой, но молодой человек решил оставить любимую и жениться по расчету. Накануне свадьбы Мацумото узнает, что Савако потеряла рассудок.
Старик Хиро — босс якудзы. Он богат и окружен почтением, но болен и одинок. Когда-то он был бедным рабочим, и любимая девушка каждый день приносила ему в парк завтраки. Но он бросил ее, погнавшись за мечтой стать важным человеком. Теперь, спустя 30 лет, он возвращается в парк, где они когда-то встречались…
Харуна Ямагучи целые дни просиживает на пустынном пляже, глядя в море. Ее прекрасное лицо почти скрыто повязкой. Совсем недавно, до несчастного случая, Харуна была звездой телевизионных шоу. Ее обожали миллионы. Нукуи, возможно, самый преданный из ее поклонников. Сегодня он собирается это доказать…
Доп. информация:Исходник и русская MVO найдены в сети.Профессиональный (двухголосый закадровый) Ruscico и русские субтитрыПрофессиональный (двухголосый закадровый)Меню неотредактировано, переключение звуковых дорожек с пульта.Огромное Спасибо Всем, без чьей помощи этот релиз не состоялся бы!Сценарий:Такеши КитаноПродюсер:Масаюки Мори, Такио ЁсидаОператор:Кацуми ЯнагисимаКомпозитор:Джо ХисаисиХудожник:Норихидо Исода, Йодзи ЯмамотоМонтаж:Такеши Китано

Знаете ли вы, что

Награды и номинации

Рецензия

Софт

PgcDemux 1.2.0.5 - разделение компонентов диска на файлы;
BeSweet+BeLight - mp3 -> Wav
Sound Forge pro 9.0 - Wav -> AC3
MuxMan DVD authoring Professional 1.2 - мультиплексирование и авторинг
DVDRemake Pro 3.6.3 - реавторинг DVD;
DVD Shrink 3.2 - Сэмпл
--

Бонусы:(Без перевода)

- Takeshi Kitano interview, part 1 (15:23)
- Takeshi Kitano interview, part 2 (14:26)
- Interview with Hidetoshi Nishijima (3:43)
- Interview with Miho Kanno (3:55)
- Interview with Yohji Yamamoto (10:06)
- Notes about Monzaemon Chikamatsu
- Notes about Bunraku
- Takeshi Kitano Biography
- Theatrical Trailer (1:38)
Меню:Английский, анимированное, озвученное.Сэмпл:https://www.sendspace.com/file/r12zcwТип релиза:DVD9 (Custom)
Контейнер:DVD-Video
Видео:PAL 16:9 (720x576) VBR, Auto Letterboxed, 5603 Кбит/сек, 25,000 кадров/секАудио 1:Японский:AC3, 2 ch, 48.0 KHz, 224 Кбит/сек / (Оригинал)Аудио 2:Русский:AC3, 6 ch, 48.0 KHz, 448 Кбит/сек / Профессиональный (двухголосый закадровый) RuscicoАудио 3:Русский:AC3, 2 ch, 48.0 KHz, 192 Кбит/сек / Профессиональный (двухголосый закадровый)Аудио 4:Русский:AC3, 2 ch, 48.0 KHz, 192 Кбит/сек / Профессиональный (многоголосый закадровый)

Dvd Info

Title: Title: W(media)
Size: 7.28 Gb ( 7 634 236 KBytes ) - DVD-9
Enabled regions: 1, 2, 3, 4, 5, 6, 7, 8
VTS_01 :
Play Length: 01:48:55
Video: PAL 16:9 (720x576) VBR, Auto Letterboxed
Audio:
English (Dolby AC3, 2 ch)
Russian (Dolby AC3, 6 ch)
Russian (Dolby AC3, 2 ch)
Russian (Dolby AC3, 2 ch)
Subtitles:
English
Russian
VTS_02 :
Play Length: 00:00:07
Video: PAL 4:3 (720x576) VBR
Audio:
English (Dolby AC3, 2 ch)
VTS_03 :
Play Length: 00:00:20
Video: PAL 16:9 (720x576) VBR, Auto Letterboxed
VTS_04 :
Play Length: 00:01:38
Video: PAL 4:3 (720x576) VBR
Audio:
English (Dolby AC3, 2 ch)
VTS_05 :
Play Length: 00:15:23
Video: PAL 4:3 (720x576) VBR
Audio:
English (Dolby AC3, 2 ch)
Subtitles:
English
VTS_06 :
Play Length: 00:01:30
Video: PAL 16:9 (720x576) VBR, Auto Letterboxed
Audio:
English (Dolby AC3, 2 ch)
Subtitles:
English
VTS_07 :
Play Length: 00:00:50
Video: PAL 4:3 (720x576) VBR
Audio:
English (Dolby AC3, 2 ch)
VTS_08 :
Play Length: 00:12:07
Video: PAL 16:9 (720x576) VBR, Auto Letterboxed
Audio:
English (Dolby AC3, 2 ch)
Subtitles:
English
VTS_09 :
Play Length: 00:03:55
Video: PAL 4:3 (720x576) VBR
Audio:
English (Dolby AC3, 2 ch)
Subtitles:
English
VTS_10 :
Play Length: 00:03:43
Video: PAL 4:3 (720x576) VBR
Audio:
English (Dolby AC3, 2 ch)
Subtitles:
English
VTS_11 :
Play Length: 00:10:06
Video: PAL 4:3 (720x576) VBR
Audio:
English (Dolby AC3, 2 ch)

Mediainfo

Общее
Полное имя : F:\Dolls DVD-9_Custom\VIDEO_TS\VTS_01_3.VOB
Формат : MPEG-PS
Размер файла : 1024 Мбайт
Продолжительность : 21 м.
Режим общего битрейта : Переменный
Общий поток : 6794 Кбит/сек
Видео
Идентификатор : 224 (0xE0)
Формат : MPEG Video
Версия формата : Version 2
Профиль формата : Main@Main
Параметр BVOP формата : Да
Параметр матрицы формата : Выборочная
Параметр GOP формата : M=3, N=12
Структура изображения : Frame
Продолжительность : 21 м.
Вид битрейта : Переменный
Битрейт : 5603 Кбит/сек
Максимальный битрейт : 7900 Кбит/сек
Ширина : 720 пикселей
Высота : 576 пикселей
Соотношение сторон : 16:9
Частота кадров : 25,000 кадров/сек
Стандарт вещания : PAL
Цветовое пространство : YUV
Субдискретизация насыщенности : 4:2:0
Битовая глубина : 8 бит
Тип развёртки : Чересстрочная
Порядок развёртки : Верхнее поле первое
Метод сжатия : С потерями
Бит/(Пиксели*Кадры) : 0.540
Временной код первого кадра : 10:42:34:17
Оригинал временного кода : Group of pictures header
GOP, открыто/закрыто : Закрыто
Размер потока : 844 Мбайт (82%)
Аудио #1
Идентификатор : 189 (0xBD)-128 (0x80)
Формат : AC-3
Формат/Информация : Audio Coding 3
Расширение режима : CM (complete main)
Параметр Endianness формата : Big
Режим смешивания : DVD-Video
Продолжительность : 21 м.
Вид битрейта : Постоянный
Битрейт : 224 Кбит/сек
Каналы : 2 канала
Расположение каналов : Front: L R
Частота : 48,0 КГц
Метод сжатия : С потерями
Задержка видео : -536 мс.
Размер потока : 33,8 Мбайт (3%)
Аудио #2
Идентификатор : 189 (0xBD)-129 (0x81)
Формат : AC-3
Формат/Информация : Audio Coding 3
Расширение режима : CM (complete main)
Параметр Endianness формата : Big
Режим смешивания : DVD-Video
Продолжительность : 21 м.
Вид битрейта : Постоянный
Битрейт : 448 Кбит/сек
Каналы : 6 каналов
Расположение каналов : Front: L C R, Side: L R, LFE
Частота : 48,0 КГц
Метод сжатия : С потерями
Задержка видео : -600 мс.
Размер потока : 67,5 Мбайт (7%)
Аудио #3
Идентификатор : 189 (0xBD)-130 (0x82)
Формат : AC-3
Формат/Информация : Audio Coding 3
Расширение режима : CM (complete main)
Параметр Endianness формата : Big
Режим смешивания : DVD-Video
Продолжительность : 21 м.
Вид битрейта : Постоянный
Битрейт : 192 Кбит/сек
Каналы : 2 канала
Расположение каналов : Front: L R
Частота : 48,0 КГц
Метод сжатия : С потерями
Задержка видео : -568 мс.
Размер потока : 28,9 Мбайт (3%)
Аудио #4
Идентификатор : 189 (0xBD)-131 (0x83)
Формат : AC-3
Формат/Информация : Audio Coding 3
Расширение режима : CM (complete main)
Параметр Endianness формата : Big
Режим смешивания : DVD-Video
Продолжительность : 21 м.
Вид битрейта : Постоянный
Битрейт : 192 Кбит/сек
Каналы : 2 канала
Расположение каналов : Front: L R
Частота : 48,0 КГц
Метод сжатия : С потерями
Задержка видео : -568 мс.
Размер потока : 28,9 Мбайт (3%)
Текст #1
Идентификатор : 189 (0xBD)-32 (0x20)
Формат : RLE
Формат/Информация : Run-length encoding
Режим смешивания : DVD-Video
Текст #2
Идентификатор : 189 (0xBD)-33 (0x21)
Формат : RLE
Формат/Информация : Run-length encoding
Режим смешивания : DVD-Video

Скриншоты меню


Скриншоты


Скриншоты доп. материалов



Релиз: Уважаемые пользователи!Найдите пару минут поблагодарить релизера и высказаться в топике раздачи.
[teatrix.ru].t14686.torrent 
Торрент: Зарегистрирован [ 2016-02-09 12:50 ] · 99ACFDA836768322744CA24D7B5EE92508F0BFF0

Скачать .torrent

Скачать

39 KB

Статус: проверено
Скачан: 1 раз
Размер: 7.28 GB
terms.php



Быстрый ответ

Имя:

      
Для отправки сообщений необходимо включить JavaScript
Показать сообщения:    

Текущее время: 19-Янв 16:04

Часовой пояс: UTC + 3


Вы можете начинать темы
Вы можете отвечать на сообщения
Вы не можете редактировать свои сообщения
Вы не можете удалять свои сообщения
Вы не можете голосовать в опросах
Вы не можете прикреплять файлы к сообщениям
Вы можете скачивать файлы