Однажды в Анатолии / Bir Zamanlar Anadolu\'da (Нури Бильге Джейлан / Nuri Bilge Ceylan) [2011, Турция, Босния и Герцеговина, Драма, криминал, DVD9] MVO Sub Rus


Статистика раздачи [Обновить пиров]
Размер:  7.91 GB   |    Зарегистрирован:  10 месяцев   |    Скачан:  0 раз

Полного источника не было: Никогда

 
   
 
 
 

[Цитировать]

Однажды в Анатолии / Bir Zamanlar Anadolu'da- Страна: Турция, Босния и Герцеговина
Студия: Zeynofilm, Production 2006, 1000 Volt
Жанр: Драма, криминал
Год выпуска: 2011
Продолжительность: 02:31:07-Перевод: Профессиональный (многоголосый закадровый)
Cубтитры: русские
Оригинальная аудиодорожка: турецкий-Режиссер: Нури Бильге Джейлан / Nuri Bilge Ceylan-В ролях: Мухаммет Узунер, Йилмаз Эрдоган, Танер Бирсель, Ахмет Мумтаз Тайлан, Фират Таниш, Эркан Кесаль, Эроль Эрарслан, Мурат Кылыч, Шафак Карали, Угур Асланоглу-Описание: Жизнь в маленьком провинциальном городке похожа на долгое путешествие по степным просторам: ждешь, что за следующим холмом откроется что-то новое, другое, а видишь только те же самые степные дороги, похожие друг на друга, одинаково бесконечно тянущиеся к горизонту…-
IMDB 8.1/10 from 7,310 users-Релиз: -Бонусы:
Хронометраж: 24 минуты
Английский DolBy Digital 2.0
Субтитры: Русский
Эксклюзивное интервью Сэма Клебанова с режиссером Нури Бильге Джейланом
Биография автора сценария и режиссера
Трейлеры
Фотогалерея-Меню: статичное / озвученное-Сэмпл-Тип релиза: DVD9
Контейнер: DVD-Video-Видео: PAL 16:9 (720x576) VBR 6404 kbps, 25.000 fps
Аудио 1: Russian Dolby AC3, 2 ch, 224 Kbps, 48.0 KHz
Аудио 2: Turkish Dolby AC3, 2 ch, 448 Kbps, 48.0 KHz-

Cover

MediaInfo

H:\Odnazhdi.v.Anatolii.2011.DVD-9\VIDEO_TS\VTS_17_6.VOB
General
Complete name : H:\Odnazhdi.v.Anatolii.2011.DVD-9\VIDEO_TS\VTS_17_6.VOB
Format : MPEG-PS
File size : 1 024 MiB
Duration : 20mn 38s
Overall bit rate : 6 934 Kbps
Video #224
ID : 224 (0xE0)
Format : MPEG Video
Format version : Version 2
Format profile : Main@Main
Format settings, Matrix : Default
Duration : 20mn 38s
Bit rate mode : Variable
Bit rate : 5 987 Kbps
Nominal bit rate : 8 000 Kbps
Width : 720 pixels
Height : 576 pixels
Display aspect ratio : 16:9
Frame rate : 25.000 fps
Standard : PAL
Colorimetry : 4:2:0
Scan type : Interlaced
Scan order : Top Field First
Bits/(Pixel*Frame) : 0.577
Stream size : 884 MiB (86%)
Audio #128
ID : 128 (0x80)
Format : AC-3
Format/Info : Audio Coding 3
Duration : 20mn 38s
Bit rate mode : Constant
Bit rate : 224 Kbps
Channel(s) : 2 channels
Channel positions : L R
Sampling rate : 48.0 KHz
Video delay : -352ms
Stream size : 33.1 MiB (3%)
Audio #129
ID : 129 (0x81)
Format : AC-3
Format/Info : Audio Coding 3
Duration : 20mn 38s
Bit rate mode : Constant
Bit rate : 448 Kbps
Channel(s) : 2 channels
Channel positions : L R
Sampling rate : 48.0 KHz
Video delay : -416ms
Stream size : 66.2 MiB (6%)
Text #32
ID : 32 (0x20)
Format : RLE
Format/Info : Run-length encoding
Text #33
ID : 33 (0x21)
Format : RLE
Format/Info : Run-length encoding

DVDInfo

Title:
Size: 7.91 Gb ( 8 293 082 KBytes ) - DVD-9
Enabled regions: 1, 2, 3, 4, 5, 6, 7, 8
VTS_01 :
Play Length: 00:00:15
Video: PAL 4:3 (720x576) VBR
Audio:
Not specified (Dolby AC3, 2 ch)
VTS_02 :
Play Length: 00:00:08
Video: PAL 16:9 (720x576) VBR, Auto Pan&Scan
Audio:
Not specified (Dolby AC3, 2 ch)
VTS_03 :
Play Length: 00:00:09
Video: PAL 16:9 (720x576) VBR, Auto Pan&Scan
Audio:
Not specified (Dolby AC3, 2 ch)
VTS_04 :
Play Length: 00:00:15
Video: PAL 4:3 (720x576) VBR
Audio:
Not specified (Dolby AC3, 2 ch)
VTS_05 :
Play Length: 00:00:15
Video: PAL 16:9 (720x576) VBR, Auto Pan&Scan
Audio:
Not specified (Dolby AC3, 2 ch)
VTS_06 :
Play Length: 00:00:20
Video: PAL 16:9 (720x576) VBR, Auto Pan&Scan
Audio:
Not specified (Dolby AC3, 2 ch)
VTS_07 :
Play Length: 00:02:26
Video: PAL 16:9 (720x576) VBR, Auto Pan&Scan
Audio:
Not specified (Dolby AC3, 2 ch)
VTS_08 :
Play Length: 00:01:07
Video: PAL 4:3 (720x576) VBR
Audio:
Not specified (Dolby AC3, 2 ch)
VTS_09 :
Play Length: 00:02:23
Video: PAL 16:9 (720x576) VBR, Auto Pan&Scan
Audio:
Not specified (Dolby AC3, 2 ch)
VTS_10 :
Play Length: 00:02:31
Video: PAL 4:3 (720x576) VBR
Audio:
Not specified (Dolby AC3, 2 ch)
VTS_11 :
Play Length: 00:02:36
Video: PAL 4:3 (720x576) VBR
Audio:
Not specified (Dolby AC3, 2 ch)
VTS_12 :
Play Length: 00:01:53
Video: PAL 4:3 (720x576) VBR
Audio:
Not specified (Dolby AC3, 2 ch)
VTS_13 :
Play Length: 00:02:06
Video: PAL 16:9 (720x576) VBR, Auto Pan&Scan
Audio:
Not specified (Dolby AC3, 2 ch)
VTS_14 :
Play Length: 00:01:29
Video: PAL 4:3 (720x576) VBR
Audio:
Not specified (Dolby AC3, 2 ch)
VTS_15 :
Play Length: 00:02:16
Video: PAL 4:3 (720x576) VBR
Audio:
Not specified (Dolby AC3, 2 ch)
VTS_16 :
Play Length: 00:07:17
Video: PAL 16:9 (720x576) VBR, Auto Pan&Scan
Audio:
English (Dolby AC3, 2 ch)
Subtitles:
Not specified
VTS_17 :
Play Length: 02:30:42
Video: PAL 16:9 (720x576) VBR, Auto Pan&Scan
Audio:
Russian (Dolby AC3, 2 ch)
Turkish (Dolby AC3, 2 ch)
Subtitles:
Russian
Menu Video:
PAL 16:9 (720x576) VBR
Auto Letterboxed
Menu English Language Unit :
Root Menu
Chapter (PTT) Menu
Скриншоты меню

Скриншоты


[teatrix.ru].t14689.torrent 
Торрент: Зарегистрирован [ 2016-02-09 12:50 ] · 791F3A9D30A517877936E338AFCCBFD3C3C41F7C

Скачать .torrent

Скачать

43 KB

Статус: проверено
Скачан: 0 раз
Размер: 7.91 GB
terms.php



Быстрый ответ

Имя:

      
Для отправки сообщений необходимо включить JavaScript
Показать сообщения:    

Текущее время: 09-Дек 22:24

Часовой пояс: UTC + 3


Вы можете начинать темы
Вы можете отвечать на сообщения
Вы не можете редактировать свои сообщения
Вы не можете удалять свои сообщения
Вы не можете голосовать в опросах
Вы не можете прикреплять файлы к сообщениям
Вы можете скачивать файлы