Беспредел / Outrage (Такеши Китано / Takeshi Kitano) [2010, Япония, Драма, криминал, BD>DVD9 (Custom)] AVO VO Sub Rus


Статистика раздачи [Обновить пиров]
Размер:  7.57 GB   |    Зарегистрирован:  10 месяцев   |    Скачан:  1 раз

Полного источника не было: 10 месяцев

Личеров:  30  [  0 KB/s  ]   Подробная статистика пиров
 
   
 
 
 

[Цитировать]

Беспредел / Outrage
Страна: Япония
Студия: Office Kitano
Жанр: Драма, криминал
Год выпуска: 2010
Продолжительность: 01:49:43
Перевод: авторский одноголосый закадровый - Ю.Сербин
Перевод 2: одноголосый закадровый - DeMon
Cубтитры: русские, английские
Оригинальная аудиодорожка: японский
Режиссер: Такеши Китано / Takeshi Kitano
В ролях: Бит Такеши / Beat Takeshi (актерский псевдоним Такеши Китано / Takeshi Kitano), Киппэй Сиина / Kippei Shiina, Рё Касэ / Ryo Kase, Фумиё Кохината / Fumiyo Kohinata, Соичиро Китамура / Soichiro Kitamura, Тэтта Сугимото / Tetta Sugimoto, Рэндзи Ишибаши / Renji Ishibashi, Дзюн Кунимура / Jun Kunimura
Описание: В безжалостной борьбе за власть несколько кланов якудза оспаривают расположение Крестного отца. Главари поднимаются по иерархической лестнице в организации, не пренебрегая заговорами и лживыми клятвами верности. Опытный якудза Отомо наблюдает за развитием карьеры своих товарищей: оставив позади замысловатые татуировки и отрубленные пальцы, они штурмуют мир финансов. В мире коррупции, где царят предательство и месть, ни на минуту не прекращается борьба за достижение вершины или просто за выживание. Это - мир, где героев не существует...
Внимание: во всех переводах присутствует ненормативная лексика
Меню: статичное, озвученное
Сэмпл: http://multi-up.com/739748
Тип релиза: DVD9 (Custom)
Контейнер: DVD-Video
Видео: MPEG2, NTSC 16:9 (720x480) VBR Auto Letterboxed
Аудио: русский одноголосый AC3, 6 CH, 48 kHz, 448Kbps DD 5.1 - Ю.Сербин
Аудио 2: русский одноголосый AC3, 6 CH, 48 kHz, 384Kbps DD 5.1 - DeMon
Аудио 3: японский: AC3, 6 CH, 48 kHz, 448Kbps DD 5.1
Формат субтитров: softsub (SRT)

MediaInfo

Общее
Полное имя : D:\KINO\BESPREDEL BD-DVD9\VIDEO_TS\VTS_01_7.VOB
Формат : MPEG-PS
Размер файла : 1000 Мбайт
Продолжительность : 14 м.
Режим общего битрейта : Переменный
Общий поток : 9852 Кбит/сек
Видео
Идентификатор : 224 (0xE0)
Формат : MPEG Video
Версия формата : Version 2
Профиль формата : Main@Main
Параметр BVOP формата : Да
Параметр матрицы формата : Выборочная
Параметр GOP формата : M=3, N=12
Продолжительность : 14 м.
Вид битрейта : Переменный
Битрейт : 8376 Кбит/сек
Максимальный битрейт : 8470 Кбит/сек
Ширина : 720 пикселей
Высота : 480 пикселей
Соотношение сторон : 16:9
Частота кадров : 23,976 кадра/сек
Стандарт вещания : NTSC
Цветовое пространство : YUV
Субдискретизация насыщенности : 4:2:0
Битовая глубина : 8 бит
Тип развёртки : Прогрессивная
Порядок развёртки : 2:3 Pulldown
Метод сжатия : С потерями
Бит/(Пиксели*Кадры) : 1.011
Размер потока : 850 Мбайт (85%)
Аудио #1
Идентификатор : 189 (0xBD)-128 (0x80)
Формат : AC-3
Формат/Информация : Audio Coding 3
Расширение режима : CM (complete main)
Режим смешивания : DVD-Video
Продолжительность : 14 м.
Вид битрейта : Постоянный
Битрейт : 448 Кбит/сек
Каналы : 6 каналов
Расположение каналов : Front: L C R, Side: L R, LFE
Частота : 48,0 КГц
Битовая глубина : 16 бит
Метод сжатия : С потерями
Задержка видео : -272 мс.
Размер потока : 45,5 Мбайт (5%)
Аудио #2
Идентификатор : 189 (0xBD)-129 (0x81)
Формат : AC-3
Формат/Информация : Audio Coding 3
Расширение режима : CM (complete main)
Режим смешивания : DVD-Video
Продолжительность : 14 м.
Вид битрейта : Постоянный
Битрейт : 384 Кбит/сек
Каналы : 6 каналов
Расположение каналов : Front: L C R, Side: L R, LFE
Частота : 48,0 КГц
Битовая глубина : 16 бит
Метод сжатия : С потерями
Задержка видео : -240 мс.
Размер потока : 39,0 Мбайт (4%)
Аудио #3
Идентификатор : 189 (0xBD)-130 (0x82)
Формат : AC-3
Формат/Информация : Audio Coding 3
Расширение режима : CM (complete main)
Режим смешивания : DVD-Video
Продолжительность : 14 м.
Вид битрейта : Постоянный
Битрейт : 448 Кбит/сек
Каналы : 6 каналов
Расположение каналов : Front: L C R, Side: L R, LFE
Частота : 48,0 КГц
Битовая глубина : 16 бит
Метод сжатия : С потерями
Задержка видео : -272 мс.
Размер потока : 45,5 Мбайт (5%)
Меню

Скриншоты меню

Скриншоты

Програмное обеспечение

tsMuxerGUI
videocalc
Adobe Photoshop CS3
AviSynth
DGAVCindex
virtualdub
Rhozet Carbon Coder
TranzcodeGUI
Sonic Foundry Soft Encode
VirtualDubMod
DVD Lab Prо
MuxMan

Скриншоты Rhozet Carbon Coder

]

Скриншот DVD Lab Prо

Скрипт AviSynth

LoadPlugin("C:\Program Files\DGindex\DGDecode.dll")
mpeg2source("project.d2v")#если в исходнике отсутствуют артефакты
LoadPlugin("C:\Program Files\AutoYUY2\AutoYUY2.dll") #более медленный, но качественный аналог ConvertToYUY2()
AutoYUY2()
LoadPlugin("C:\Program Files\ColorMatrix\ColorMatrix.dll")
ColorMatrix(mode="Rec.709->Rec.601", inputFR=false, clamp=0) #корректировка цветовой шкалы, если проверка показывает 16-235
AssumeFPS("ntsc_film")
BicubicResize(720, 480, 0, 0.5) #ресайз методом Catmull-Rom spline
AddBorders (0,0,0,0) #bbb=00
Точка перехода между слоями выставлена.
Фильм записан на диск Verbatim DVD+R DL программой ImgBurn и проверен на железном плеере Marantz DV6600
[teatrix.ru].t14692.torrent 
Торрент: Зарегистрирован [ 2016-02-09 12:50 ] · 56BF2C6969D8C9E54A657860A19AD4DD9DB5607E

Скачать .torrent

Скачать

39 KB

Статус: проверено
Скачан: 1 раз
Размер: 7.57 GB
terms.php



Быстрый ответ

Имя:

      
Для отправки сообщений необходимо включить JavaScript
Показать сообщения:    

Текущее время: 09-Дек 22:28

Часовой пояс: UTC + 3


Вы можете начинать темы
Вы можете отвечать на сообщения
Вы не можете редактировать свои сообщения
Вы не можете удалять свои сообщения
Вы не можете голосовать в опросах
Вы не можете прикреплять файлы к сообщениям
Вы можете скачивать файлы