(Classical) David Babcock - Symphony No.5 - Niederosterreichisches Tonkunstlerorchester, Andres Orozco-Estrada - 2003, FLAC (image+.cue) lossless


 

[Цитировать]

David Babcock - Symphony No.5 - Niederösterreichisches Tonkünstlerorchester, Andrés Orozco-Estrada
Жанр: Classical
Страна-производитель диска: Austria
Год издания диска: 2003
Издатель (лейбл): Music Forum Austria-America
Дата записи: 2003
Аудиокодек: FLAC
Тип рипа: image+.cue
Битрейт аудио: lossless
Продолжительность: 33:21
Источник: собственный рип
Наличие сканов в содержимом раздачи: да
Треклист:
David Babcock (b.1956)
[1]-[3] Symphony No.5, Op.58 (2001)
Исполнители:
Niederösterreichisches Tonkünstlerorchester
Andrés Orozco-Estrada

Лог создания рипа

Exact Audio Copy V1.0 beta 3 from 29. August 2011
EAC extraction logfile from 29. May 2015, 21:31
Niederosterreichisches Tonkunstlerorchester, Andres Orozco-Estrada / Babcock - Symphony No.5
Used drive : HL-DT-STDVDRAM GU70N Adapter: 0 ID: 0
Read mode : SecureUtilize accurate stream : YesDefeat audio cache : YesMake use of C2 pointers : No
Read offset correction : 48Overread into Lead-In and Lead-Out : NoFill up missing offset samples with silence : YesDelete leading and trailing silent blocks : NoNull samples used in CRC calculations : YesUsed interface : Native Win32 interface for Win NT & 2000
Used output format : User Defined EncoderSelected bitrate : 128 kBit/sQuality : HighAdd ID3 tag : NoCommand line compressor : C:\Program Files (x86)\Exact Audio Copy\Flac\flac.exeAdditional command line options : -V -8 -T "Date=%year%" -T "Genre=%genre%" %source%
TOC of the extracted CD
Track | Start | Length | Start sector | End sector --------------------------------------------------------- 1 | 0:00.00 | 11:41.28 | 0 | 52602 2 | 11:41.28 | 10:37.28 | 52603 | 100405 3 | 22:18.56 | 11:07.28 | 100406 | 150458
Range status and errors
Selected range
Filename C:\temp\Babcock - Symphony No.5\Babcock - Symphony No.5.wav
Peak level 95.0 % Extraction speed 4.1 X Range quality 100.0 % Test CRC 213BAC4E Copy CRC 213BAC4E Copy OK
No errors occurred
AccurateRip summary
Track 1 cannot be verified as accurate (confidence 1) [BA180399], AccurateRip returned [14035D6A] (AR v2)Track 2 cannot be verified as accurate (confidence 1) [427CD796], AccurateRip returned [7B9927BE] (AR v2)Track 3 cannot be verified as accurate (confidence 1) [8EF06AFC], AccurateRip returned [CB397520] (AR v2)
No tracks could be verified as accurateYou may have a different pressing from the one(s) in the database
End of status report
==== Log checksum EA8653C7FFE649FC5D9E2832A2FBA7094335BF07C7714EFD6AC5AE16F3D39AF9 ====



Показать сообщения:    

Текущее время: 06-Дек 17:10

Часовой пояс: UTC + 3


Вы не можете начинать темы
Вы не можете отвечать на сообщения
Вы не можете редактировать свои сообщения
Вы не можете удалять свои сообщения
Вы не можете голосовать в опросах
Вы не можете прикреплять файлы к сообщениям
Вы не можете скачивать файлы