(Orchestral) Клод Дебюсси – Море, Ноктюрны, Послеполуденный отдых Фавна / Claude Debussy - La Mer, Nocturnes, Prelude a l'apres-midi d'un Faune (Евгений Светланов, The Philharmonia Orchestra) - 2012, FLAC (tracks+.cue) lossless WEB


 

[Цитировать]

Debussy - La Mer, Nocturnes, Prélude à l'après-midi d'un faune - Svetlanov - The Philharmonia
Жанр: Orchestral
Страна-производитель диска: Great Britain
Год издания диска: 2012
Издатель (лейбл): Collins Classics
Номер по каталогу: CC-1364
Дата записи: 1992
Аудиокодек: FLAC
Тип рипа: tracks+.cue
Битрейт аудио: lossless
Продолжительность: 62:53
Источник: prestoclassical
Наличие сканов в содержимом раздачи: да
Треклист:
Claude Debussy (1862-1918)
La Mer, Three symphonic sketches (1903-05)
01 I. De l'aube à midi sur la mer (10:03)
02 II. Jeux de vagues (6:45)
03 III. Dialogue du vent et de la mer (8:53)
Nocturnes (1897-99)
04 I. Nuages (8:11)
05 II. Fêtes (6:25)
06 III. Sirènes (10:36)
07 Prélude à l'après-midi d'un faune (1891-94) (11:55)
Исполнители:
The Philharmonia Orchestra
The Sixteen choir, director Harry Cristophers, Kenneth Smith (flute)
Евгений Светланов, conductor
Recorded at St. Augustine's Church, London, May 1992

Содержание индексной карты (.CUE)

TITLE "Debussy - La Mer - Nocturnes - Prйlude а l'aprиs midi d'un faune - Svetlanov-PO"PERFORMER "Kenneth Smith (flute), Philharmonia Orchestra, Evgeny Svetlanov"FILE "01 - Debussy - La Mer - I. De l'aube а midi sur la mer.flac" FLACREM FILE-DECODED-SIZE 10:03:68 TRACK 01 AUDIO INDEX 01 00:00:00FILE "02 - Debussy - La Mer - II. Jeux de vagues.flac" FLACREM FILE-DECODED-SIZE 06:45:19 TRACK 02 AUDIO INDEX 01 00:00:00FILE "03 - Debussy - La Mer - III. Dialogue du vent et de la mer.flac" FLACREM FILE-DECODED-SIZE 08:53:28 TRACK 03 AUDIO INDEX 01 00:00:00FILE "04 - Debussy - Nocturnes - I. Nuages.flac" FLACREM FILE-DECODED-SIZE 08:11:72 TRACK 04 AUDIO INDEX 01 00:00:00FILE "05 - Debussy - Nocturnes - II. Fкtes.flac" FLACREM FILE-DECODED-SIZE 06:25:41 TRACK 05 AUDIO INDEX 01 00:00:00FILE "06 - Debussy - Nocturnes - III. Sirиnes.flac" FLACREM FILE-DECODED-SIZE 10:36:60 TRACK 06 AUDIO INDEX 01 00:00:00FILE "07 - Debussy - Prйlude а l'aprиs-midi d'un faune.flac" FLACREM FILE-DECODED-SIZE 11:55:57 TRACK 07 AUDIO TITLE "07 - Debussy - Prйlude а l'aprиs-midi d'un faune" PERFORMER "Kenneth Smith (flute), Philharmonia Orchestra, Evgeny Svetlanov" INDEX 01 00:00:00

Лог проверки качества

AUDIOCHECKER v2.0 beta (build 457) - by Dester - opdester@freemail.hu~~~~~~~~~~~~~~~~~~~~~~~~~~~~~~~~~~
Started at: понедельник, 08. 02. 2016. - 18:58.427 files found
1 -===- C:\Music\!Classical Music\Debussy - La Mer, Nocturnes, Prelude - Svetlanov\01 - Debussy - La Mer - I. De l'aube a midi sur la mer.flac Extracted successfully Conclusion: this track is CDDA with probability 100% Tempfile successfully deleted.
2 -===- C:\Music\!Classical Music\Debussy - La Mer, Nocturnes, Prelude - Svetlanov\02 - Debussy - La Mer - II. Jeux de vagues.flac Extracted successfully Conclusion: this track is CDDA with probability 100% Tempfile successfully deleted.
3 -===- C:\Music\!Classical Music\Debussy - La Mer, Nocturnes, Prelude - Svetlanov\03 - Debussy - La Mer - III. Dialogue du vent et de la mer.flac Extracted successfully Conclusion: this track is CDDA with probability 100% Tempfile successfully deleted.
4 -===- C:\Music\!Classical Music\Debussy - La Mer, Nocturnes, Prelude - Svetlanov\04 - Debussy - Nocturnes - I. Nuages.flac Extracted successfully Conclusion: this track is CDDA with probability 100% Tempfile successfully deleted.
5 -===- C:\Music\!Classical Music\Debussy - La Mer, Nocturnes, Prelude - Svetlanov\05 - Debussy - Nocturnes - II. Fetes.flac Extracted successfully Conclusion: this track is CDDA with probability 99% Tempfile successfully deleted.
6 -===- C:\Music\!Classical Music\Debussy - La Mer, Nocturnes, Prelude - Svetlanov\06 - Debussy - Nocturnes - III. Sirenes.flac Extracted successfully Conclusion: this track is CDDA with probability 100% Tempfile successfully deleted.
7 -===- C:\Music\!Classical Music\Debussy - La Mer, Nocturnes, Prelude - Svetlanov\07 - Debussy - Prelude a l'apres-midi d'un faune.flac Extracted successfully Conclusion: this track is CDDA with probability 100% Tempfile successfully deleted.
Finished at: понедельник, 08. 02. 2016. - 19:22.13 (operation time: 0:23.30)
Доп. информация: Е.Ф.Светланов в своём фирменном стиле - неспешные темпы, мощные кульминации, любовь к кантилене, внимание к деталям и непередаваемая торжественность. Есть обычай на Руси: ночью слушать Би-Би-Си Дебюсси... Лондонский оркестр “Филармония”, май 1992 года.



Показать сообщения:    

Текущее время: 08-Дек 09:01

Часовой пояс: UTC + 3


Вы не можете начинать темы
Вы не можете отвечать на сообщения
Вы не можете редактировать свои сообщения
Вы не можете удалять свои сообщения
Вы не можете голосовать в опросах
Вы не можете прикреплять файлы к сообщениям
Вы не можете скачивать файлы