(Classical) Игорь Стравинский - Весна священная / Stravinsky - Le sacre du printemps (Teodor Currentzis; MusicAeterna) - 2015, FLAC (tracks+.cue) lossless


 

[Цитировать]

Игорь Стравинский - Весна священная / Stravinsky - Le sacre du printemps (Teodor Currentzis; MusicAeterna)
Жанр: Classical
Год выпуска диска: 2015
Страна-производитель диска: US
Издатель (лейбл): Sony Classical
Номер по каталогу: LC06868
Аудиокодек: FLAC
Тип рипа: tracks+.cue
Битрейт аудио: lossless
Продолжительность: 00:34:47
Источник: скачано из сети
Наличие сканов в содержимом раздачи: да
ID3-теги: да
Исполнители:
MusicAeterna
Teodor Currentzis
Треклист:
Premiere Partie - L'Adoration de la terre:
01. Introduction (03:29)
02. Les Augures printaniers - Danses des adolescentes (02:59)
03. Jeu du rapt (01:09)
04. Rondes printanieres (04:04)
05. Jeux des cites rivales (01:51)
06. Cortege du Sage (00:39)
07. Le Sage (00:25)
08. Danse de la terre (01:05)
Seconde Partie - Le Sacrifice:
09. Introduction (04:37)
10. Cercles mysterieux des adolescentes (03:42)
11. Glorification de l'Elue (01:36)
12. Evocation des ancetres (00:37)
13. Action rituelle des ancestres (03:59)
14. Danse sacrale (L'Elue) (04:35)

LOG EAC:

Exact Audio Copy V1.0 beta 4 from 7. December 2014
EAC extraction logfile from 11. October 2015, 0:47
Teodor Currentzis / Le Sacre du printemps
Used drive : HL-DT-STBD-RE BH16NS40 Adapter: 1 ID: 0
Read mode : SecureUtilize accurate stream : YesDefeat audio cache : YesMake use of C2 pointers : No
Read offset correction : 6Overread into Lead-In and Lead-Out : NoFill up missing offset samples with silence : YesDelete leading and trailing silent blocks : NoNull samples used in CRC calculations : YesUsed interface : Native Win32 interface for Win NT & 2000Gap handling : Appended to previous track
Used output format : User Defined EncoderSelected bitrate : 1024 kBit/sQuality : HighAdd ID3 tag : NoCommand line compressor : F:\Program Files (x86)\Exact Audio Copy\FLAC\FLAC.EXEAdditional command line options : -8 -V -T "ARTIST=%artist%" -T "TITLE=%title%" -T "ALBUM=%albumtitle%" -T "DATE=%year%" -T "TRACKNUMBER=%tracknr%" -T "GENRE=%genre%" -T "PERFORMER=%albuminterpret%" -T "COMPOSER=%composer%" %haslyrics%--tag-from-file=LYRICS="%lyricsfile%"%haslyrics% -T "ALBUMARTIST=%albumartist%" -T "DISCNUMBER=%cdnumber%" -T "TOTALDISCS=%totalcds%" -T "TOTALTRACKS=%numtracks%" -T "COMMENT=%comment%" %source% -o %dest%
TOC of the extracted CD
Track | Start | Length | Start sector | End sector --------------------------------------------------------- 1 | 0:00.00 | 3:28.44 | 0 | 15643 2 | 3:28.44 | 2:59.09 | 15644 | 29077 3 | 6:27.53 | 1:08.74 | 29078 | 34251 4 | 7:36.52 | 4:04.08 | 34252 | 52559 5 | 11:40.60 | 1:51.04 | 52560 | 60888 6 | 13:31.64 | 0:39.19 | 60889 | 63832 7 | 14:11.08 | 0:24.71 | 63833 | 65703 8 | 14:36.04 | 1:05.33 | 65704 | 70611 9 | 15:41.37 | 4:36.52 | 70612 | 91363 10 | 20:18.14 | 3:41.64 | 91364 | 108002 11 | 24:00.03 | 1:35.62 | 108003 | 115189 12 | 25:35.65 | 0:36.56 | 115190 | 117945 13 | 26:12.46 | 3:58.71 | 117946 | 135866 14 | 30:11.42 | 4:35.08 | 135867 | 156499
Track 1
Filename E:\EAC\1.01 - Première Partie - L'Adoration de la terre- Introduction.wav
Pre-gap length 0:00:02.00
Peak level 47.0 % Extraction speed 1.4 X Track quality 100.0 % Test CRC EB0853DA Copy CRC EB0853DA Track not present in AccurateRip database Copy OK
Track 2
Filename E:\EAC\1.02 - L'Adoration de la terre- Les Augures printaniers - Danses des adolescentes.wav
Peak level 96.6 % Extraction speed 1.1 X Track quality 100.0 % Test CRC D64D0F52 Copy CRC D64D0F52 Track not present in AccurateRip database Copy OK
Track 3
Filename E:\EAC\1.03 - L'Adoration de la terre- Jeu du rapt.wav
Pre-gap length 0:00:00.28
Peak level 96.6 % Extraction speed 0.9 X Track quality 100.0 % Test CRC 01C349CA Copy CRC 01C349CA Track not present in AccurateRip database Copy OK
Track 4
Filename E:\EAC\1.04 - L'Adoration de la terre- Rondes printanières.wav
Peak level 96.6 % Extraction speed 1.2 X Track quality 100.0 % Test CRC 74AF2D2B Copy CRC 74AF2D2B Track not present in AccurateRip database Copy OK
Track 5
Filename E:\EAC\1.05 - L'Adoration de la terre- Jeux des cités rivales.wav
Peak level 96.5 % Extraction speed 1.1 X Track quality 100.0 % Test CRC 862820DD Copy CRC 862820DD Track not present in AccurateRip database Copy OK
Track 6
Filename E:\EAC\1.06 - L'Adoration de la terre- Cortège du Sage.wav
Pre-gap length 0:00:00.01
Peak level 96.7 % Extraction speed 0.8 X Track quality 100.0 % Test CRC FFEDC11D Copy CRC FFEDC11D Track not present in AccurateRip database Copy OK
Track 7
Filename E:\EAC\1.07 - L'Adoration de la terre- Le Sage.wav
Peak level 4.3 % Extraction speed 0.6 X Track quality 100.0 % Test CRC 6D378ACF Copy CRC 6D378ACF Track not present in AccurateRip database Copy OK
Track 8
Filename E:\EAC\1.08 - L'Adoration de la terre- Danse de la terre.wav
Peak level 96.6 % Extraction speed 1.0 X Track quality 100.0 % Test CRC DE479B4F Copy CRC DE479B4F Track not present in AccurateRip database Copy OK
Track 9
Filename E:\EAC\1.09 - Seconde Partie - Le Sacrifice- Introduction.wav
Peak level 24.2 % Extraction speed 1.4 X Track quality 100.0 % Test CRC FB73DD34 Copy CRC FB73DD34 Track not present in AccurateRip database Copy OK
Track 10
Filename E:\EAC\1.10 - Le Sacrifice- Cercles mystérieux des adolescentes.wav
Peak level 72.1 % Extraction speed 1.5 X Track quality 100.0 % Test CRC 8E201CDE Copy CRC 8E201CDE Track not present in AccurateRip database Copy OK
Track 11
Filename E:\EAC\1.11 - Le Sacrifice- Glorification de l'Élue.wav
Pre-gap length 0:00:00.04
Peak level 96.6 % Extraction speed 1.3 X Track quality 100.0 % Test CRC 7F2823F7 Copy CRC 7F2823F7 Track not present in AccurateRip database Copy OK
Track 12
Filename E:\EAC\1.12 - Le Sacrifice- Evocation des ancêtres.wav
Peak level 96.6 % Extraction speed 0.9 X Track quality 100.0 % Test CRC A268C543 Copy CRC A268C543 Track not present in AccurateRip database Copy OK
Track 13
Filename E:\EAC\1.13 - Le Sacrifice- Action rituelle des ancêstres.wav
Pre-gap length 0:00:00.08
Peak level 96.7 % Extraction speed 1.6 X Track quality 100.0 % Test CRC 8979C3A9 Copy CRC 8979C3A9 Track not present in AccurateRip database Copy OK
Track 14
Filename E:\EAC\1.14 - Le Sacrifice- Danse sacrale (L'Élue).wav
Pre-gap length 0:00:00.08
Peak level 96.8 % Extraction speed 1.7 X Track quality 100.0 % Test CRC B63390AC Copy CRC B63390AC Track not present in AccurateRip database Copy OK
None of the tracks are present in the AccurateRip database
No errors occurred
End of status report
---- CUETools DB Plugin V2.1.4
[CTDB TOCID: v0B8JeR6fgXHU5RtLziUd4NCyf0-] disk not present in databaseSubmit result: v0B8JeR6fgXHU5RtLziUd4NCyf0- has been uploaded
==== Log checksum 3F87DDDB4A3504B75875BE04D51B69B810D080A117FF00F14B7F8F1D62D6490E ====

LOG (.CUE):

REM GENRE ClassicalREM DATE 2015REM DISCID B408260EREM COMMENT "ExactAudioCopy v1.0b4"CATALOG 0888750614124PERFORMER "Teodor Currentzis"TITLE "Le Sacre du printemps"FILE "1.01 - Premiиre Partie - L'Adoration de la terre- Introduction.wav" WAVE TRACK 01 AUDIO TITLE "Premiиre Partie - L'Adoration de la terre: Introduction" PERFORMER "Teodor Currentzis" ISRC USSM11504519 INDEX 01 00:00:00FILE "1.02 - L'Adoration de la terre- Les Augures printaniers - Danses des adolescentes.wav" WAVE TRACK 02 AUDIO TITLE "L'Adoration de la terre: Les Augures printaniers - Danses des adolescentes" PERFORMER "Teodor Currentzis" ISRC USSM11504520 INDEX 01 00:00:00 TRACK 03 AUDIO TITLE "L'Adoration de la terre: Jeu du rapt" PERFORMER "Teodor Currentzis" ISRC USSM11504521 INDEX 00 02:58:63FILE "1.03 - L'Adoration de la terre- Jeu du rapt.wav" WAVE INDEX 01 00:00:00FILE "1.04 - L'Adoration de la terre- Rondes printaniиres.wav" WAVE TRACK 04 AUDIO TITLE "L'Adoration de la terre: Rondes printaniиres" PERFORMER "Teodor Currentzis" ISRC USSM11504522 INDEX 01 00:00:00FILE "1.05 - L'Adoration de la terre- Jeux des citйs rivales.wav" WAVE TRACK 05 AUDIO TITLE "L'Adoration de la terre: Jeux des citйs rivales" PERFORMER "Teodor Currentzis" ISRC USSM11504522 INDEX 01 00:00:00 TRACK 06 AUDIO TITLE "L'Adoration de la terre: Cortиge du Sage" PERFORMER "Teodor Currentzis" ISRC USSM11504523 INDEX 00 01:51:03FILE "1.06 - L'Adoration de la terre- Cortиge du Sage.wav" WAVE INDEX 01 00:00:00FILE "1.07 - L'Adoration de la terre- Le Sage.wav" WAVE TRACK 07 AUDIO TITLE "L'Adoration de la terre: Le Sage" PERFORMER "Teodor Currentzis" ISRC USSM11504525 INDEX 01 00:00:00FILE "1.08 - L'Adoration de la terre- Danse de la terre.wav" WAVE TRACK 08 AUDIO TITLE "L'Adoration de la terre: Danse de la terre" PERFORMER "Teodor Currentzis" ISRC USSM11504526 INDEX 01 00:00:00FILE "1.09 - Seconde Partie - Le Sacrifice- Introduction.wav" WAVE TRACK 09 AUDIO TITLE "Seconde Partie - Le Sacrifice: Introduction" PERFORMER "Teodor Currentzis" ISRC USSM11504528 INDEX 01 00:00:00FILE "1.10 - Le Sacrifice- Cercles mystйrieux des adolescentes.wav" WAVE TRACK 10 AUDIO TITLE "Le Sacrifice: Cercles mystйrieux des adolescentes" PERFORMER "Teodor Currentzis" ISRC USSM11504529 INDEX 01 00:00:00 TRACK 11 AUDIO TITLE "Le Sacrifice: Glorification de l'Йlue" PERFORMER "Teodor Currentzis" ISRC USSM11504530 INDEX 00 03:41:61FILE "1.11 - Le Sacrifice- Glorification de l'Йlue.wav" WAVE INDEX 01 00:00:00FILE "1.12 - Le Sacrifice- Evocation des ancкtres.wav" WAVE TRACK 12 AUDIO TITLE "Le Sacrifice: Evocation des ancкtres" PERFORMER "Teodor Currentzis" ISRC USSM11504531 INDEX 01 00:00:00 TRACK 13 AUDIO TITLE "Le Sacrifice: Action rituelle des ancкstres" PERFORMER "Teodor Currentzis" ISRC USSM11504532 INDEX 00 00:36:50FILE "1.13 - Le Sacrifice- Action rituelle des ancкstres.wav" WAVE INDEX 01 00:00:00 TRACK 14 AUDIO TITLE "Le Sacrifice: Danse sacrale (L'Йlue)" PERFORMER "Teodor Currentzis" ISRC USSM11504533 INDEX 00 03:58:65FILE "1.14 - Le Sacrifice- Danse sacrale (L'Йlue).wav" WAVE INDEX 01 00:00:00



Показать сообщения:    

Текущее время: 08-Дек 17:22

Часовой пояс: UTC + 3


Вы не можете начинать темы
Вы не можете отвечать на сообщения
Вы не можете редактировать свои сообщения
Вы не можете удалять свои сообщения
Вы не можете голосовать в опросах
Вы не можете прикреплять файлы к сообщениям
Вы не можете скачивать файлы