(Classical) Lutoslawski - Symphonies; Concertos; Choral and Vocal Works - Polish National Radio Symphony Orchestra, Antoni Wit - 10CD - 2013, FLAC (image+.cue) lossless


 

[Цитировать]

Lutosławski - Symphonies; Concertos; Choral and Vocal Works - Polish National Radio Symphony Orchestra, Antoni Wit
Жанр: Classical
Год издания диска: 2013
Издатель (лейбл): Naxos
Номер по каталогу: 8.501066
Дата записи: 1993-2001
Аудиокодек: FLAC
Тип рипа: image+.cue
Битрейт аудио: lossless
Продолжительность: 11:31:45
Источник: собственный рип
Наличие сканов в содержимом раздачи: да
Треклист:
Witold Lutosławski (1913-1994)

CD01

[1]-[4] Symphony No.1
[5]-[7] Silesian Triptych
[8]-[11] Jeux vénitiens
[12]-[20] Chantefleurs et Chantefables
[21] Postludium I
Olga Pasichnyk soprano

CD02

[1] Symphonic Variations
[2]-[5] Little Suite (Mala suita)
[6]-[7] Symphony No.2
[8]-[11] Concerto for Piano and Orchestra
Piotr Paleczny piano

CD03

[1] Paganini Variations
Bernd Glemser piano
[2]-[5] Paroles tissées
Piotr Kusiewicz tenor
[6] Les Espaces du sommeil
Adam Kruszewski baritone
[7] Symphony No. 3

CD04

[1]-[4] Funeral Music for Strings
[5]-[8] Chain II: Dialogue for Violin and Orchestra
[9] Interlude
[10]-[14] Partita for Violin and Orchestra
[15] Symphony No.4
Krzysztof Bakowski violin

CD05

[1] Livre pour orchestre
[2] Concerto for Cello and Orchestra
Andrzej Bauer cello
[3]-[7] Novelette
[8] Chain III

CD06

[1]-[3] Concerto for Orchestra
[4]-[6] Three Poems by Henri Michaux
Camerata Silesia
Anna Szostak
director
[7] Mi-parti for Symphony Orchestra
[8] Overture for Strings

CD07

[1]-[3] Three Postludes
[4]-[11] Preludes and Fugue for 13 solo strings
[12] Mini Overture
[13] Fanfare for Louisville
[14] Fanfare for CUBE
[15] Prelude for G. S. M. D.
[16] Fanfare for the University of Lancaster

CD08

[1]-[5] Dance Preludes for Clarinet and Orchestra
Zbigniew Kaleta clarinet
[6]-[8] Double Concerto for Oboe, Harp and Chamber Orchestra
Arkadiusz Krupa oboe
Nicolas Tulliez harp
[9] Grave - Metamorphoses for Cello and String Orchestra
Rafał Kwiatkowski cello
[10] Chain I for 14 performers
[11]-[12] Two Children's Songs for Voice and Chamber Orchestra
[13]-[18] Six Children's Songs for Voice and Instrumens
Urszula Kryger soprano

CD09

[1]-[20] 20 Polish Christmas Carols
[21] Lacrimosa
Olga Pasichnyk soprano
Polish Radio Chorus
[22]-[26] 5 Songs
Jadwiga Rappé contralto

CD10

Lutosławski's Last Concert
[1]-[5] Partita for Violin and Orchestra
[6] Interlude
[7]-[10] Chain II - Dialogue for Violin and Orchestra
[11]-[19] Chantefleurs et Chantefables
[20] Chain I
Fujiko Imajishi violin
Valdine Anderson soprano
New Music Concerts
Witold Lutoslawski
Исполнители:
Polish National Radio Symphony Orchestra
Antoni Wit

Лог создания рипа: CD01

Exact Audio Copy V1.0 beta 3 from 29. August 2011
EAC extraction logfile from 15. November 2014, 1:10
Polish National Radio Symphony Orchestra, Antoni Wit / Lutoslawski - Symphonies; Concertos; Choral & Vocal Works - CD01
Used drive : HL-DT-STDVDRAM GU70N Adapter: 0 ID: 0
Read mode : SecureUtilize accurate stream : YesDefeat audio cache : YesMake use of C2 pointers : No
Read offset correction : 48Overread into Lead-In and Lead-Out : NoFill up missing offset samples with silence : YesDelete leading and trailing silent blocks : NoNull samples used in CRC calculations : YesUsed interface : Native Win32 interface for Win NT & 2000
Used output format : User Defined EncoderSelected bitrate : 128 kBit/sQuality : HighAdd ID3 tag : NoCommand line compressor : C:\Program Files (x86)\Exact Audio Copy\Flac\flac.exeAdditional command line options : -V -8 -T "Date=%year%" -T "Genre=%genre%" %source%
TOC of the extracted CD
Track | Start | Length | Start sector | End sector --------------------------------------------------------- 1 | 0:00.00 | 5:31.05 | 0 | 24829 2 | 5:31.05 | 9:52.65 | 24830 | 69294 3 | 15:23.70 | 4:33.02 | 69295 | 89771 4 | 19:56.72 | 5:22.00 | 89772 | 113921 5 | 25:18.72 | 3:02.25 | 113922 | 127596 6 | 28:21.22 | 3:29.50 | 127597 | 143321 7 | 31:50.72 | 3:08.00 | 143322 | 157421 8 | 34:58.72 | 3:06.65 | 157422 | 171436 9 | 38:05.62 | 1:58.23 | 171437 | 180309 10 | 40:04.10 | 3:14.20 | 180310 | 194879 11 | 43:18.30 | 4:57.04 | 194880 | 217158 12 | 48:15.34 | 2:44.73 | 217159 | 229531 13 | 51:00.32 | 1:32.02 | 229532 | 236433 14 | 52:32.34 | 2:22.71 | 236434 | 247154 15 | 54:55.30 | 1:41.00 | 247155 | 254729 16 | 56:36.30 | 2:05.22 | 254730 | 264126 17 | 58:41.52 | 2:31.58 | 264127 | 275509 18 | 61:13.35 | 2:47.00 | 275510 | 288034 19 | 64:00.35 | 2:43.72 | 288035 | 300331 20 | 66:44.32 | 1:52.70 | 300332 | 308801 21 | 68:37.27 | 4:00.70 | 308802 | 326871
Range status and errors
Selected range
Filename C:\temp\Naxos_8.501066 - Lutoslawski - Symphonies; Concertos; Choral & Vocal Works\CD01\Lutoslawski - Symphonies; Concertos; Choral & Vocal Works - CD01.wav
Peak level 99.9 % Extraction speed 2.3 X Range quality 100.0 % Test CRC DEF03F5F Copy CRC DEF03F5F Copy OK
No errors occurred
AccurateRip summary
Track 1 cannot be verified as accurate (confidence 11) [6EB066CE], AccurateRip returned [E08E96AD] (AR v2)Track 2 cannot be verified as accurate (confidence 11) [2FAFA11D], AccurateRip returned [7632020D] (AR v2)Track 3 cannot be verified as accurate (confidence 11) [D3903BF4], AccurateRip returned [489FB018] (AR v2)Track 4 cannot be verified as accurate (confidence 11) [5C3CD3CA], AccurateRip returned [6253C026] (AR v2)Track 5 cannot be verified as accurate (confidence 11) [048229C9], AccurateRip returned [EA478B7F] (AR v2)Track 6 cannot be verified as accurate (confidence 11) [9377924F], AccurateRip returned [EA0D6AD6] (AR v2)Track 7 cannot be verified as accurate (confidence 11) [8E4EA0CA], AccurateRip returned [BB57446C] (AR v2)Track 8 cannot be verified as accurate (confidence 10) [9E20FF8D], AccurateRip returned [BC801BED] (AR v2)Track 9 cannot be verified as accurate (confidence 11) [86D3D29B], AccurateRip returned [EA6D0911] (AR v2)Track 10 cannot be verified as accurate (confidence 11) [75397C94], AccurateRip returned [5CF03FEC] (AR v2)Track 11 cannot be verified as accurate (confidence 11) [1FB3D0FA], AccurateRip returned [9DFA63CC] (AR v2)Track 12 cannot be verified as accurate (confidence 12) [10B71FC8], AccurateRip returned [FF66E042] (AR v2)Track 13 cannot be verified as accurate (confidence 12) [6D1AA831], AccurateRip returned [F8C85B70] (AR v2)Track 14 cannot be verified as accurate (confidence 12) [14398764], AccurateRip returned [BAE9CCD0] (AR v2)Track 15 cannot be verified as accurate (confidence 12) [751DD1D3], AccurateRip returned [B514E5EA] (AR v2)Track 16 cannot be verified as accurate (confidence 12) [BE71498A], AccurateRip returned [B4A28A52] (AR v2)Track 17 cannot be verified as accurate (confidence 12) [50CEBDA1], AccurateRip returned [C82A77AA] (AR v2)Track 18 cannot be verified as accurate (confidence 12) [5A4B83C1], AccurateRip returned [C56F5E36] (AR v2)Track 19 cannot be verified as accurate (confidence 12) [3AEB8FB1], AccurateRip returned [9F47BDCE] (AR v2)Track 20 cannot be verified as accurate (confidence 12) [896C2B38], AccurateRip returned [79E414B9] (AR v2)Track 21 cannot be verified as accurate (confidence 9) [34D9CC10], AccurateRip returned [099B5604] (AR v2)
No tracks could be verified as accurateYou may have a different pressing from the one(s) in the database
End of status report
==== Log checksum 029FA61FE74A268ED290EDFDB89A05BAF6533DBB8B0CE27276DB4A5417E06BA0 ====

Лог создания рипа: CD02

Exact Audio Copy V1.0 beta 3 from 29. August 2011
EAC extraction logfile from 15. November 2014, 3:38
Polish National Radio Symphony Orchestra, Antoni Wit / Lutoslawski - Symphonies; Concertos; Choral & Vocal Works - CD02
Used drive : HL-DT-STDVDRAM GU70N Adapter: 0 ID: 0
Read mode : SecureUtilize accurate stream : YesDefeat audio cache : YesMake use of C2 pointers : No
Read offset correction : 48Overread into Lead-In and Lead-Out : NoFill up missing offset samples with silence : YesDelete leading and trailing silent blocks : NoNull samples used in CRC calculations : YesUsed interface : Native Win32 interface for Win NT & 2000
Used output format : User Defined EncoderSelected bitrate : 128 kBit/sQuality : HighAdd ID3 tag : NoCommand line compressor : C:\Program Files (x86)\Exact Audio Copy\Flac\flac.exeAdditional command line options : -V -8 -T "Date=%year%" -T "Genre=%genre%" %source%
TOC of the extracted CD
Track | Start | Length | Start sector | End sector --------------------------------------------------------- 1 | 0:00.00 | 9:20.15 | 0 | 42014 2 | 9:20.15 | 2:41.10 | 42015 | 54099 3 | 12:01.25 | 1:33.00 | 54100 | 61074 4 | 13:34.25 | 2:39.02 | 61075 | 73001 5 | 16:13.27 | 3:22.63 | 73002 | 88214 6 | 19:36.15 | 14:30.52 | 88215 | 153516 7 | 34:06.67 | 16:44.28 | 153517 | 228844 8 | 50:51.20 | 6:06.50 | 228845 | 256344 9 | 56:57.70 | 5:05.47 | 256345 | 279266 10 | 62:03.42 | 7:12.70 | 279267 | 311736 11 | 69:16.37 | 8:07.68 | 311737 | 348329
Range status and errors
Selected range
Filename C:\temp\Naxos_8.501066 - Lutoslawski - Symphonies; Concertos; Choral & Vocal Works\CD02\Lutoslawski - Symphonies; Concertos; Choral & Vocal Works - CD02.wav
Peak level 88.0 % Extraction speed 2.3 X Range quality 100.0 % Test CRC 3A1EF268 Copy CRC 3A1EF268 Copy OK
No errors occurred
AccurateRip summary
Track 1 cannot be verified as accurate (confidence 6) [FB973A93], AccurateRip returned [0B8EA90F] (AR v2)Track 2 cannot be verified as accurate (confidence 6) [BAD69F1E], AccurateRip returned [0B41D5D2] (AR v2)Track 3 cannot be verified as accurate (confidence 6) [2A28E32B], AccurateRip returned [22CE0FC2] (AR v2)Track 4 cannot be verified as accurate (confidence 6) [32025EB4], AccurateRip returned [BE350173] (AR v2)Track 5 cannot be verified as accurate (confidence 6) [62724049], AccurateRip returned [07CEFFFE] (AR v2)Track 6 cannot be verified as accurate (confidence 6) [B3886F47], AccurateRip returned [525260C4] (AR v2)Track 7 cannot be verified as accurate (confidence 6) [DAE70D9E], AccurateRip returned [7C79A59F] (AR v2)Track 8 cannot be verified as accurate (confidence 6) [7DA79F6A], AccurateRip returned [739681E2] (AR v2)Track 9 cannot be verified as accurate (confidence 6) [77943426], AccurateRip returned [28BD15FE] (AR v2)Track 10 cannot be verified as accurate (confidence 6) [4B53E636], AccurateRip returned [9999C1FB] (AR v2)Track 11 cannot be verified as accurate (confidence 6) [E5C7F46D], AccurateRip returned [DE794028] (AR v2)
No tracks could be verified as accurateYou may have a different pressing from the one(s) in the database
End of status report
==== Log checksum A44F4E42F2EA82888027CACC44602946CD5DDEADEC6330AC81D63808679DC935 ====

Лог создания рипа: CD03

Exact Audio Copy V1.0 beta 3 from 29. August 2011
EAC extraction logfile from 15. November 2014, 11:11
Polish National Radio Symphony Orchestra, Antoni Wit / Lutoslawski - Symphonies; Concertos; Choral & Vocal Works - CD03
Used drive : HL-DT-STDVDRAM GU70N Adapter: 0 ID: 0
Read mode : SecureUtilize accurate stream : YesDefeat audio cache : YesMake use of C2 pointers : No
Read offset correction : 48Overread into Lead-In and Lead-Out : NoFill up missing offset samples with silence : YesDelete leading and trailing silent blocks : NoNull samples used in CRC calculations : YesUsed interface : Native Win32 interface for Win NT & 2000
Used output format : User Defined EncoderSelected bitrate : 128 kBit/sQuality : HighAdd ID3 tag : NoCommand line compressor : C:\Program Files (x86)\Exact Audio Copy\Flac\flac.exeAdditional command line options : -V -8 -T "Date=%year%" -T "Genre=%genre%" %source%
TOC of the extracted CD
Track | Start | Length | Start sector | End sector --------------------------------------------------------- 1 | 0:00.00 | 9:50.30 | 0 | 44279 2 | 9:50.30 | 3:13.22 | 44280 | 58776 3 | 13:03.52 | 3:13.10 | 58777 | 73261 4 | 16:16.62 | 4:07.18 | 73262 | 91804 5 | 20:24.05 | 5:16.62 | 91805 | 115566 6 | 25:40.67 | 15:26.68 | 115567 | 185084 7 | 41:07.60 | 31:33.50 | 185085 | 327109
Range status and errors
Selected range
Filename C:\temp\Naxos_8.501066 - Lutoslawski - Symphonies; Concertos; Choral & Vocal Works\CD03\Lutoslawski - Symphonies; Concertos; Choral & Vocal Works - CD03.wav
Peak level 89.1 % Extraction speed 2.3 X Range quality 99.9 % Test CRC CE08596C Copy CRC CE08596C Copy OK
No errors occurred
AccurateRip summary
Track 1 cannot be verified as accurate (confidence 14) [A980A97A], AccurateRip returned [025A3B7A] (AR v2)Track 2 cannot be verified as accurate (confidence 13) [009F4519], AccurateRip returned [CA7809F0] (AR v2)Track 3 cannot be verified as accurate (confidence 12) [12279ECB], AccurateRip returned [D2BF4EE1] (AR v2)Track 4 cannot be verified as accurate (confidence 13) [6DDFF235], AccurateRip returned [C409C06A] (AR v2)Track 5 cannot be verified as accurate (confidence 13) [83AE272A], AccurateRip returned [666FFEB7] (AR v2)Track 6 cannot be verified as accurate (confidence 13) [2D41CC19], AccurateRip returned [F4BE5A26] (AR v2)Track 7 cannot be verified as accurate (confidence 13) [2F64FAC7], AccurateRip returned [6776598D] (AR v2)
No tracks could be verified as accurateYou may have a different pressing from the one(s) in the database
End of status report
==== Log checksum 2EB9C4948F7A7EAD827AAE7EB393E7ED402FD61005EFF94EF469DF53DEC0D91D ====

Лог создания рипа: CD04

Exact Audio Copy V1.0 beta 3 from 29. August 2011
EAC extraction logfile from 15. November 2014, 12:42
Polish National Radio Symphony Orchestra, Antoni Wit / Lutoslawski - Symphonies; Concertos; Choral & Vocal Works - CD04
Used drive : HL-DT-STDVDRAM GU70N Adapter: 0 ID: 0
Read mode : SecureUtilize accurate stream : YesDefeat audio cache : YesMake use of C2 pointers : No
Read offset correction : 48Overread into Lead-In and Lead-Out : NoFill up missing offset samples with silence : YesDelete leading and trailing silent blocks : NoNull samples used in CRC calculations : YesUsed interface : Native Win32 interface for Win NT & 2000
Used output format : User Defined EncoderSelected bitrate : 128 kBit/sQuality : HighAdd ID3 tag : NoCommand line compressor : C:\Program Files (x86)\Exact Audio Copy\Flac\flac.exeAdditional command line options : -V -8 -T "Date=%year%" -T "Genre=%genre%" %source%
TOC of the extracted CD
Track | Start | Length | Start sector | End sector --------------------------------------------------------- 1 | 0:00.00 | 4:11.45 | 0 | 18869 2 | 4:11.45 | 4:35.35 | 18870 | 39529 3 | 8:47.05 | 0:40.07 | 39530 | 42536 4 | 9:27.12 | 4:11.10 | 42537 | 61371 5 | 13:38.22 | 4:01.45 | 61372 | 79491 6 | 17:39.67 | 5:22.20 | 79492 | 103661 7 | 23:02.12 | 5:28.23 | 103662 | 128284 8 | 28:30.35 | 4:24.60 | 128285 | 148144 9 | 32:55.20 | 6:29.05 | 148145 | 177324 10 | 39:24.25 | 4:35.55 | 177325 | 198004 11 | 44:00.05 | 0:58.07 | 198005 | 202361 12 | 44:58.12 | 6:14.13 | 202362 | 230424 13 | 51:12.25 | 0:47.42 | 230425 | 233991 14 | 51:59.67 | 4:16.33 | 233992 | 253224 15 | 56:16.25 | 20:39.02 | 253225 | 346151
Range status and errors
Selected range
Filename C:\temp\Naxos_8.501066 - Lutoslawski - Symphonies; Concertos; Choral & Vocal Works\CD04\Lutoslawski - Symphonies; Concertos; Choral & Vocal Works - CD04.wav
Peak level 83.1 % Extraction speed 2.3 X Range quality 100.0 % Test CRC B5FDB936 Copy CRC B5FDB936 Copy OK
No errors occurred
AccurateRip summary
Track 1 cannot be verified as accurate (confidence 7) [61555C80], AccurateRip returned [6529E48C] (AR v2)Track 2 cannot be verified as accurate (confidence 7) [BEEF8D3C], AccurateRip returned [13978DBC] (AR v2)Track 3 cannot be verified as accurate (confidence 7) [BCCBD9BC], AccurateRip returned [62CD52F8] (AR v2)Track 4 cannot be verified as accurate (confidence 7) [F750DC57], AccurateRip returned [AC075B72] (AR v2)Track 5 cannot be verified as accurate (confidence 7) [63C74DA2], AccurateRip returned [4183FB12] (AR v2)Track 6 cannot be verified as accurate (confidence 7) [83BABEBD], AccurateRip returned [F63928A9] (AR v2)Track 7 cannot be verified as accurate (confidence 7) [E194A423], AccurateRip returned [C37FB896] (AR v2)Track 8 cannot be verified as accurate (confidence 7) [C699078B], AccurateRip returned [71B41C19] (AR v2)Track 9 cannot be verified as accurate (confidence 7) [C1EE9F4E], AccurateRip returned [E67522B1] (AR v2)Track 10 cannot be verified as accurate (confidence 7) [919DD4BF], AccurateRip returned [8B032D62] (AR v2)Track 11 cannot be verified as accurate (confidence 7) [3AD0AB47], AccurateRip returned [084CB48C] (AR v2)Track 12 cannot be verified as accurate (confidence 7) [132EEC07], AccurateRip returned [68DCC09D] (AR v2)Track 13 cannot be verified as accurate (confidence 7) [45DF1A9B], AccurateRip returned [18B3156D] (AR v2)Track 14 cannot be verified as accurate (confidence 7) [0C25828A], AccurateRip returned [D7547632] (AR v2)Track 15 cannot be verified as accurate (confidence 7) [0EB3B862], AccurateRip returned [EC736780] (AR v2)
No tracks could be verified as accurateYou may have a different pressing from the one(s) in the database
End of status report
==== Log checksum B82016B740872E0624495D7AD8AFC779CB5A32E28D4F8202CF119F1CB6FE7D02 ====

Лог создания рипа: CD05

Exact Audio Copy V1.0 beta 3 from 29. August 2011
EAC extraction logfile from 15. November 2014, 15:52
Polish National Radio Symphony Orchestra, Antoni Wit / Lutoslawski - Symphonies; Concertos; Choral & Vocal Works - CD05
Used drive : HL-DT-STDVDRAM GU70N Adapter: 0 ID: 0
Read mode : SecureUtilize accurate stream : YesDefeat audio cache : YesMake use of C2 pointers : No
Read offset correction : 48Overread into Lead-In and Lead-Out : NoFill up missing offset samples with silence : YesDelete leading and trailing silent blocks : NoNull samples used in CRC calculations : YesUsed interface : Native Win32 interface for Win NT & 2000
Used output format : User Defined EncoderSelected bitrate : 128 kBit/sQuality : HighAdd ID3 tag : NoCommand line compressor : C:\Program Files (x86)\Exact Audio Copy\Flac\flac.exeAdditional command line options : -V -8 -T "Date=%year%" -T "Genre=%genre%" %source%
TOC of the extracted CD
Track | Start | Length | Start sector | End sector --------------------------------------------------------- 1 | 0:00.00 | 20:37.60 | 0 | 92834 2 | 20:37.60 | 23:41.47 | 92835 | 199456 3 | 44:19.32 | 1:56.20 | 199457 | 208176 4 | 46:15.52 | 2:46.53 | 208177 | 220679 5 | 49:02.30 | 3:35.30 | 220680 | 236834 6 | 52:37.60 | 1:57.62 | 236835 | 245671 7 | 54:35.47 | 6:33.25 | 245672 | 275171 8 | 61:08.72 | 11:56.33 | 275172 | 328904
Range status and errors
Selected range
Filename C:\temp\Naxos_8.501066 - Lutoslawski - Symphonies; Concertos; Choral & Vocal Works\CD05\Lutoslawski - Symphonies; Concertos; Choral & Vocal Works - CD05.wav
Peak level 100.0 % Extraction speed 2.3 X Range quality 99.9 % Test CRC F8F832C7 Copy CRC F8F832C7 Copy OK
No errors occurred
AccurateRip summary
Track 1 cannot be verified as accurate (confidence 8) [F872624D], AccurateRip returned [15FBA62B] (AR v2)Track 2 cannot be verified as accurate (confidence 7) [E7036F5E], AccurateRip returned [C03224DA] (AR v2)Track 3 cannot be verified as accurate (confidence 7) [71FC3B58], AccurateRip returned [EBFC2153] (AR v2)Track 4 cannot be verified as accurate (confidence 7) [A1EACFDF], AccurateRip returned [618FCD51] (AR v2)Track 5 cannot be verified as accurate (confidence 7) [CE7A24F9], AccurateRip returned [5F75FA68] (AR v2)Track 6 cannot be verified as accurate (confidence 7) [4A96F708], AccurateRip returned [26569D3A] (AR v2)Track 7 cannot be verified as accurate (confidence 7) [EB027EB4], AccurateRip returned [AFB05ED5] (AR v2)Track 8 cannot be verified as accurate (confidence 7) [034A81DF], AccurateRip returned [B80C1978] (AR v2)
No tracks could be verified as accurateYou may have a different pressing from the one(s) in the database
End of status report
==== Log checksum FA1AF0F984DB4959139DC3A725F5CFFAE775168B9695E1F2C2920C83C347FFE5 ====

Лог создания рипа: CD06

Exact Audio Copy V1.0 beta 3 from 29. August 2011
EAC extraction logfile from 15. November 2014, 22:39
Polish National Radio Symphony Orchestra, Antoni Wit / Lutoslawski - Symphonies; Concertos; Choral & Vocal Works - CD06
Used drive : HL-DT-STDVDRAM GU70N Adapter: 0 ID: 0
Read mode : SecureUtilize accurate stream : YesDefeat audio cache : YesMake use of C2 pointers : No
Read offset correction : 48Overread into Lead-In and Lead-Out : NoFill up missing offset samples with silence : YesDelete leading and trailing silent blocks : NoNull samples used in CRC calculations : YesUsed interface : Native Win32 interface for Win NT & 2000
Used output format : User Defined EncoderSelected bitrate : 128 kBit/sQuality : HighAdd ID3 tag : NoCommand line compressor : C:\Program Files (x86)\Exact Audio Copy\Flac\flac.exeAdditional command line options : -V -8 -T "Date=%year%" -T "Genre=%genre%" %source%
TOC of the extracted CD
Track | Start | Length | Start sector | End sector --------------------------------------------------------- 1 | 0:00.00 | 7:17.55 | 0 | 32829 2 | 7:17.55 | 5:51.02 | 32830 | 59156 3 | 13:08.57 | 16:17.65 | 59157 | 132496 4 | 29:26.47 | 7:06.13 | 132497 | 164459 5 | 36:32.60 | 6:42.45 | 164460 | 194654 6 | 43:15.30 | 7:45.50 | 194655 | 229579 7 | 51:01.05 | 14:29.60 | 229580 | 294814 8 | 65:30.65 | 5:19.20 | 294815 | 318759
Range status and errors
Selected range
Filename C:\temp\Naxos_8.501066 - Lutoslawski - Symphonies; Concertos; Choral & Vocal Works\CD06\Lutoslawski - Symphonies; Concertos; Choral & Vocal Works - CD06.wav
Peak level 99.0 % Extraction speed 2.3 X Range quality 100.0 % Test CRC 2858D029 Copy CRC 2858D029 Copy OK
No errors occurred
AccurateRip summary
Track 1 cannot be verified as accurate (confidence 12) [40FEA3B7], AccurateRip returned [F01F3D7A] (AR v2)Track 2 cannot be verified as accurate (confidence 11) [63D0C5D6], AccurateRip returned [EEB1CE4B] (AR v2)Track 3 cannot be verified as accurate (confidence 11) [0DA03CDE], AccurateRip returned [566F80F4] (AR v2)Track 4 cannot be verified as accurate (confidence 12) [71172430], AccurateRip returned [465089DB] (AR v2)Track 5 cannot be verified as accurate (confidence 12) [34B9800F], AccurateRip returned [D08E333F] (AR v2)Track 6 cannot be verified as accurate (confidence 12) [81568246], AccurateRip returned [64C0C2F1] (AR v2)Track 7 cannot be verified as accurate (confidence 10) [A99BCB8A], AccurateRip returned [0D7CAA08] (AR v2)Track 8 cannot be verified as accurate (confidence 7) [D33BB472], AccurateRip returned [032B01A5] (AR v2)
No tracks could be verified as accurateYou may have a different pressing from the one(s) in the database
End of status report
==== Log checksum 22CE93BB3CDD14E0112E7EB94EE8A7B5DC51E55109282BD5D220FB8772EBA89C ====

Лог создания рипа: CD07

Exact Audio Copy V1.0 beta 3 from 29. August 2011
EAC extraction logfile from 16. November 2014, 18:49
Polish National Radio Symphony Orchestra, Antoni Wit / Lutoslawski - Symphonies; Concertos; Choral & Vocal Works - CD07
Used drive : HL-DT-STDVDRAM GU70N Adapter: 0 ID: 0
Read mode : SecureUtilize accurate stream : YesDefeat audio cache : YesMake use of C2 pointers : No
Read offset correction : 48Overread into Lead-In and Lead-Out : NoFill up missing offset samples with silence : YesDelete leading and trailing silent blocks : NoNull samples used in CRC calculations : YesUsed interface : Native Win32 interface for Win NT & 2000
Used output format : User Defined EncoderSelected bitrate : 128 kBit/sQuality : HighAdd ID3 tag : NoCommand line compressor : C:\Program Files (x86)\Exact Audio Copy\Flac\flac.exeAdditional command line options : -V -8 -T "Date=%year%" -T "Genre=%genre%" %source%
TOC of the extracted CD
Track | Start | Length | Start sector | End sector --------------------------------------------------------- 1 | 0:00.00 | 4:02.47 | 0 | 18196 2 | 4:02.47 | 5:20.70 | 18197 | 42266 3 | 9:23.42 | 7:26.00 | 42267 | 75716 4 | 16:49.42 | 2:21.63 | 75717 | 86354 5 | 19:11.30 | 1:37.24 | 86355 | 93653 6 | 20:48.54 | 3:32.33 | 93654 | 109586 7 | 24:21.12 | 2:27.68 | 109587 | 120679 8 | 26:49.05 | 2:05.05 | 120680 | 130059 9 | 28:54.10 | 2:24.25 | 130060 | 140884 10 | 31:18.35 | 3:59.67 | 140885 | 158876 11 | 35:18.27 | 16:59.23 | 158877 | 235324 12 | 52:17.50 | 3:12.32 | 235325 | 249756 13 | 55:30.07 | 1:12.70 | 249757 | 255226 14 | 56:43.02 | 0:26.73 | 255227 | 257249 15 | 57:10.00 | 1:53.02 | 257250 | 265726 16 | 59:03.02 | 0:28.05 | 265727 | 267831
Range status and errors
Selected range
Filename C:\temp\Naxos_8.501066 - Lutoslawski - Symphonies; Concertos; Choral & Vocal Works\CD07\Lutoslawski - Symphonies; Concertos; Choral & Vocal Works - CD07.wav
Peak level 99.9 % Extraction speed 5.1 X Range quality 100.0 % Test CRC D7F46481 Copy CRC D7F46481 Copy OK
No errors occurred
AccurateRip summary
Track 1 cannot be verified as accurate (confidence 9) [5165A1C9], AccurateRip returned [FEF9943B] (AR v2)Track 2 cannot be verified as accurate (confidence 9) [2126167E], AccurateRip returned [0858B5C8] (AR v2)Track 3 cannot be verified as accurate (confidence 9) [C77E9302], AccurateRip returned [BC737D7B] (AR v2)Track 4 cannot be verified as accurate (confidence 9) [3E848997], AccurateRip returned [A731F91F] (AR v2)Track 5 cannot be verified as accurate (confidence 9) [299968B1], AccurateRip returned [BC4A0978] (AR v2)Track 6 cannot be verified as accurate (confidence 9) [AE14BDFB], AccurateRip returned [641A3194] (AR v2)Track 7 cannot be verified as accurate (confidence 9) [A4694DC5], AccurateRip returned [F5B3BB24] (AR v2)Track 8 cannot be verified as accurate (confidence 9) [301DDF1B], AccurateRip returned [7A7C6B5F] (AR v2)Track 9 cannot be verified as accurate (confidence 9) [297DF74E], AccurateRip returned [F861CA9D] (AR v2)Track 10 cannot be verified as accurate (confidence 9) [172C1CEB], AccurateRip returned [7D47005E] (AR v2)Track 11 cannot be verified as accurate (confidence 9) [9AF15020], AccurateRip returned [AD94F989] (AR v2)Track 12 cannot be verified as accurate (confidence 9) [0967D67E], AccurateRip returned [E9868BC7] (AR v2)Track 13 cannot be verified as accurate (confidence 9) [EF7F3923], AccurateRip returned [17567924] (AR v2)Track 14 cannot be verified as accurate (confidence 9) [A9AE2574], AccurateRip returned [B5C2DFDC] (AR v2)Track 15 cannot be verified as accurate (confidence 9) [04187587], AccurateRip returned [5CD1332F] (AR v2)Track 16 cannot be verified as accurate (confidence 8) [97B58A7E], AccurateRip returned [2B09169E] (AR v2)
No tracks could be verified as accurateYou may have a different pressing from the one(s) in the database
End of status report
==== Log checksum 3628744E0FEBBDDE5F14A82ABC8576232AA6FBDAB54569AA748D510662EF7D4A ====

Лог создания рипа: CD08

Exact Audio Copy V1.0 beta 3 from 29. August 2011
EAC extraction logfile from 16. November 2014, 19:24
Polish National Radio Symphony Orchestra, Antoni Wit / Lutoslawski - Symphonies; Concertos; Choral & Vocal Works - CD08
Used drive : HL-DT-STDVDRAM GU70N Adapter: 0 ID: 0
Read mode : SecureUtilize accurate stream : YesDefeat audio cache : YesMake use of C2 pointers : No
Read offset correction : 48Overread into Lead-In and Lead-Out : NoFill up missing offset samples with silence : YesDelete leading and trailing silent blocks : NoNull samples used in CRC calculations : YesUsed interface : Native Win32 interface for Win NT & 2000
Used output format : User Defined EncoderSelected bitrate : 128 kBit/sQuality : HighAdd ID3 tag : NoCommand line compressor : C:\Program Files (x86)\Exact Audio Copy\Flac\flac.exeAdditional command line options : -V -8 -T "Date=%year%" -T "Genre=%genre%" %source%
TOC of the extracted CD
Track | Start | Length | Start sector | End sector --------------------------------------------------------- 1 | 0:00.00 | 1:02.62 | 0 | 4711 2 | 1:02.62 | 2:34.70 | 4712 | 16331 3 | 3:37.57 | 1:19.73 | 16332 | 22329 4 | 4:57.55 | 3:11.00 | 22330 | 36654 5 | 8:08.55 | 1:44.65 | 36655 | 44519 6 | 9:53.45 | 5:07.20 | 44520 | 67564 7 | 15:00.65 | 6:54.32 | 67565 | 98646 8 | 21:55.22 | 6:24.03 | 98647 | 127449 9 | 28:19.25 | 5:48.00 | 127450 | 153549 10 | 34:07.25 | 9:21.67 | 153550 | 195691 11 | 43:29.17 | 2:42.15 | 195692 | 207856 12 | 46:11.32 | 2:28.63 | 207857 | 219019 13 | 48:40.20 | 0:59.05 | 219020 | 223449 14 | 49:39.25 | 2:10.72 | 223450 | 233271 15 | 51:50.22 | 1:45.00 | 233272 | 241146 16 | 53:35.22 | 1:36.03 | 241147 | 248349 17 | 55:11.25 | 2:23.00 | 248350 | 259074 18 | 57:34.25 | 0:41.42 | 259075 | 262191
Range status and errors
Selected range
Filename C:\temp\Naxos_8.501066 - Lutoslawski - Symphonies; Concertos; Choral & Vocal Works\CD08\Lutoslawski - Symphonies; Concertos; Choral & Vocal Works - CD08.wav
Peak level 94.1 % Extraction speed 5.1 X Range quality 100.0 % Test CRC 5FD47ED0 Copy CRC 5FD47ED0 Copy OK
No errors occurred
AccurateRip summary
Track 1 cannot be verified as accurate (confidence 5) [9A7E0316], AccurateRip returned [749DBF31] (AR v2)Track 2 cannot be verified as accurate (confidence 5) [6CC52B55], AccurateRip returned [C69181BC] (AR v2)Track 3 cannot be verified as accurate (confidence 5) [4CF9D376], AccurateRip returned [92553E94] (AR v2)Track 4 cannot be verified as accurate (confidence 5) [AA445ED6], AccurateRip returned [14815EFD] (AR v2)Track 5 cannot be verified as accurate (confidence 5) [D924F85D], AccurateRip returned [3C9AD716] (AR v2)Track 6 cannot be verified as accurate (confidence 5) [F1F6D879], AccurateRip returned [6BBCE1EA] (AR v2)Track 7 cannot be verified as accurate (confidence 5) [58448577], AccurateRip returned [FD824B94] (AR v2)Track 8 cannot be verified as accurate (confidence 5) [52CFD239], AccurateRip returned [18F623B4] (AR v2)Track 9 cannot be verified as accurate (confidence 5) [22AFE129], AccurateRip returned [2F55679D] (AR v2)Track 10 cannot be verified as accurate (confidence 5) [1EC45C86], AccurateRip returned [18FA4790] (AR v2)Track 11 cannot be verified as accurate (confidence 5) [30198B6D], AccurateRip returned [ED93B1EB] (AR v2)Track 12 cannot be verified as accurate (confidence 5) [F0542723], AccurateRip returned [CF77CC61] (AR v2)Track 13 cannot be verified as accurate (confidence 5) [E56C2B75], AccurateRip returned [7A622D89] (AR v2)Track 14 cannot be verified as accurate (confidence 5) [A77E997C], AccurateRip returned [94900795] (AR v2)Track 15 cannot be verified as accurate (confidence 5) [F43DE144], AccurateRip returned [445CAC4C] (AR v2)Track 16 cannot be verified as accurate (confidence 5) [CD728618], AccurateRip returned [1831E37F] (AR v2)Track 17 cannot be verified as accurate (confidence 5) [47E0501A], AccurateRip returned [E0EFC74A] (AR v2)Track 18 cannot be verified as accurate (confidence 5) [1F2B7404], AccurateRip returned [2E6FC2F6] (AR v2)
No tracks could be verified as accurateYou may have a different pressing from the one(s) in the database
End of status report
==== Log checksum 830255AA3DD47CD0F4472377AE2112C1C790C0EB8B10A8BE5F651E9AD91D4924 ====

Лог создания рипа: CD09

Exact Audio Copy V1.0 beta 3 from 29. August 2011
EAC extraction logfile from 16. November 2014, 19:59
Polish National Radio Symphony Orchestra, Antoni Wit / Lutoslawski - Symphonies; Concertos; Choral & Vocal Works - CD09
Used drive : HL-DT-STDVDRAM GU70N Adapter: 0 ID: 0
Read mode : SecureUtilize accurate stream : YesDefeat audio cache : YesMake use of C2 pointers : No
Read offset correction : 48Overread into Lead-In and Lead-Out : NoFill up missing offset samples with silence : YesDelete leading and trailing silent blocks : NoNull samples used in CRC calculations : YesUsed interface : Native Win32 interface for Win NT & 2000
Used output format : User Defined EncoderSelected bitrate : 128 kBit/sQuality : HighAdd ID3 tag : NoCommand line compressor : C:\Program Files (x86)\Exact Audio Copy\Flac\flac.exeAdditional command line options : -V -8 -T "Date=%year%" -T "Genre=%genre%" %source%
TOC of the extracted CD
Track | Start | Length | Start sector | End sector --------------------------------------------------------- 1 | 0:00.00 | 2:01.72 | 0 | 9146 2 | 2:01.72 | 0:48.03 | 9147 | 12749 3 | 2:50.00 | 2:04.00 | 12750 | 22049 4 | 4:54.00 | 1:28.00 | 22050 | 28649 5 | 6:22.00 | 2:18.00 | 28650 | 38999 6 | 8:40.00 | 3:23.00 | 39000 | 54224 7 | 12:03.00 | 0:54.00 | 54225 | 58274 8 | 12:57.00 | 2:06.00 | 58275 | 67724 9 | 15:03.00 | 1:31.00 | 67725 | 74549 10 | 16:34.00 | 1:41.72 | 74550 | 82196 11 | 18:15.72 | 1:58.00 | 82197 | 91046 12 | 20:13.72 | 1:13.03 | 91047 | 96524 13 | 21:27.00 | 3:48.72 | 96525 | 113696 14 | 25:15.72 | 2:28.03 | 113697 | 124799 15 | 27:44.00 | 1:44.00 | 124800 | 132599 16 | 29:28.00 | 2:23.00 | 132600 | 143324 17 | 31:51.00 | 1:55.72 | 143325 | 152021 18 | 33:46.72 | 1:55.03 | 152022 | 160649 19 | 35:42.00 | 2:12.00 | 160650 | 170549 20 | 37:54.00 | 2:16.72 | 170550 | 180821 21 | 40:10.72 | 3:37.03 | 180822 | 197099 22 | 43:48.00 | 2:48.10 | 197100 | 209709 23 | 46:36.10 | 1:08.00 | 209710 | 214809 24 | 47:44.10 | 2:57.00 | 214810 | 228084 25 | 50:41.10 | 1:31.00 | 228085 | 234909 26 | 52:12.10 | 2:07.65 | 234910 | 244499
Range status and errors
Selected range
Filename C:\temp\Naxos_8.501066 - Lutoslawski - Symphonies; Concertos; Choral & Vocal Works\CD09\Lutoslawski - Symphonies; Concertos; Choral & Vocal Works - CD09.wav
Peak level 90.6 % Extraction speed 5.0 X Range quality 100.0 % Test CRC 5B0CEF39 Copy CRC 5B0CEF39 Copy OK
No errors occurred
AccurateRip summary
Track 1 cannot be verified as accurate (confidence 5) [80574E29], AccurateRip returned [51C92FAB] (AR v2)Track 2 cannot be verified as accurate (confidence 5) [294F6AC1], AccurateRip returned [15658B62] (AR v2)Track 3 cannot be verified as accurate (confidence 5) [30862493], AccurateRip returned [1C3EDFAD] (AR v2)Track 4 cannot be verified as accurate (confidence 5) [344B8EE7], AccurateRip returned [5E6E15AA] (AR v2)Track 5 cannot be verified as accurate (confidence 5) [075B3FAD], AccurateRip returned [5479148A] (AR v2)Track 6 cannot be verified as accurate (confidence 5) [BD4B3F44], AccurateRip returned [2DA0D988] (AR v2)Track 7 cannot be verified as accurate (confidence 5) [1FE733C6], AccurateRip returned [47222D4B] (AR v2)Track 8 cannot be verified as accurate (confidence 5) [28B9D310], AccurateRip returned [C8724C3E] (AR v2)Track 9 cannot be verified as accurate (confidence 5) [273A967E], AccurateRip returned [4BA69E20] (AR v2)Track 10 cannot be verified as accurate (confidence 5) [094AAE55], AccurateRip returned [635D0A1B] (AR v2)Track 11 cannot be verified as accurate (confidence 5) [B6594602], AccurateRip returned [4629A76A] (AR v2)Track 12 cannot be verified as accurate (confidence 5) [D966CD0D], AccurateRip returned [F4BF267B] (AR v2)Track 13 cannot be verified as accurate (confidence 5) [EF6C9CDC], AccurateRip returned [FEA3AED4] (AR v2)Track 14 cannot be verified as accurate (confidence 5) [E4C8E0D2], AccurateRip returned [954544C0] (AR v2)Track 15 cannot be verified as accurate (confidence 5) [09B1EE45], AccurateRip returned [4CD8EF7A] (AR v2)Track 16 cannot be verified as accurate (confidence 5) [8139635D], AccurateRip returned [3B05CC2E] (AR v2)Track 17 cannot be verified as accurate (confidence 5) [FE90E71A], AccurateRip returned [C81E9CFF] (AR v2)Track 18 cannot be verified as accurate (confidence 5) [F5FAEBF6], AccurateRip returned [A77255ED] (AR v2)Track 19 cannot be verified as accurate (confidence 5) [32F877CB], AccurateRip returned [457874EB] (AR v2)Track 20 cannot be verified as accurate (confidence 5) [AD36BBFE], AccurateRip returned [3D5B1B8D] (AR v2)Track 21 cannot be verified as accurate (confidence 5) [5EF45890], AccurateRip returned [F4629578] (AR v2)Track 22 cannot be verified as accurate (confidence 5) [D745D3FA], AccurateRip returned [36CA8358] (AR v2)Track 23 cannot be verified as accurate (confidence 5) [F6BA7583], AccurateRip returned [8D3D0CF8] (AR v2)Track 24 cannot be verified as accurate (confidence 5) [C4238166], AccurateRip returned [D88689B7] (AR v2)Track 25 cannot be verified as accurate (confidence 5) [161C42AE], AccurateRip returned [81D7B3E0] (AR v2)Track 26 cannot be verified as accurate (confidence 5) [183E3E2D], AccurateRip returned [EC817EE1] (AR v2)
No tracks could be verified as accurateYou may have a different pressing from the one(s) in the database
End of status report
==== Log checksum 8E547713AB236FEF44E6AE7ABBEBA36EECE785D238DD359E01EDA511FC2AEBE3 ====

Лог создания рипа: CD10

Exact Audio Copy V1.0 beta 3 from 29. August 2011
EAC extraction logfile from 16. November 2014, 21:19
New Music Concerts, Witold Lutoslawski / Lutoslawski - Symphonies; Concertos; Choral & Vocal Works - CD10
Used drive : HL-DT-STDVDRAM GU70N Adapter: 0 ID: 0
Read mode : SecureUtilize accurate stream : YesDefeat audio cache : YesMake use of C2 pointers : No
Read offset correction : 48Overread into Lead-In and Lead-Out : NoFill up missing offset samples with silence : YesDelete leading and trailing silent blocks : NoNull samples used in CRC calculations : YesUsed interface : Native Win32 interface for Win NT & 2000
Used output format : User Defined EncoderSelected bitrate : 128 kBit/sQuality : HighAdd ID3 tag : NoCommand line compressor : C:\Program Files (x86)\Exact Audio Copy\Flac\flac.exeAdditional command line options : -V -8 -T "Date=%year%" -T "Genre=%genre%" %source%
TOC of the extracted CD
Track | Start | Length | Start sector | End sector --------------------------------------------------------- 1 | 0:00.00 | 4:30.51 | 0 | 20300 2 | 4:30.51 | 1:19.00 | 20301 | 26225 3 | 5:49.51 | 6:46.08 | 26226 | 56683 4 | 12:35.59 | 0:56.38 | 56684 | 60921 5 | 13:32.22 | 4:15.24 | 60922 | 80070 6 | 17:47.46 | 7:12.54 | 80071 | 112524 7 | 25:00.25 | 3:59.45 | 112525 | 130494 8 | 28:59.70 | 5:13.62 | 130495 | 154031 9 | 34:13.57 | 5:36.74 | 154032 | 179305 10 | 39:50.56 | 4:47.74 | 179306 | 200904 11 | 44:38.55 | 2:21.40 | 200905 | 211519 12 | 47:00.20 | 1:49.05 | 211520 | 219699 13 | 48:49.25 | 2:33.00 | 219700 | 231174 14 | 51:22.25 | 1:45.00 | 231175 | 239049 15 | 53:07.25 | 2:15.38 | 239050 | 249212 16 | 55:22.63 | 2:24.57 | 249213 | 260069 17 | 57:47.45 | 2:59.25 | 260070 | 273519 18 | 60:46.70 | 2:40.70 | 273520 | 285589 19 | 63:27.65 | 2:07.31 | 285590 | 295145 20 | 65:35.21 | 10:00.54 | 295146 | 340199
Range status and errors
Selected range
Filename C:\temp\Naxos_8.501066 - Lutoslawski - Symphonies; Concertos; Choral & Vocal Works\CD10\Lutoslawski - Symphonies; Concertos; Choral & Vocal Works - CD10.wav
Peak level 99.8 % Extraction speed 2.3 X Range quality 100.0 % Test CRC 7F569B77 Copy CRC 7F569B77 Copy OK
No errors occurred
AccurateRip summary
Track 1 accurately ripped (confidence 1) [37203F6C] (AR v2)Track 2 accurately ripped (confidence 1) [A8FBD5B8] (AR v2)Track 3 accurately ripped (confidence 1) [36775E7D] (AR v2)Track 4 accurately ripped (confidence 1) [BB52374A] (AR v2)Track 5 accurately ripped (confidence 1) [5AE2A86C] (AR v2)Track 6 accurately ripped (confidence 1) [9D2E3EA1] (AR v2)Track 7 accurately ripped (confidence 1) [58062DF2] (AR v2)Track 8 accurately ripped (confidence 1) [2C83C908] (AR v2)Track 9 accurately ripped (confidence 1) [706DA787] (AR v2)Track 10 accurately ripped (confidence 1) [960832D0] (AR v2)Track 11 accurately ripped (confidence 1) [D18B0D6A] (AR v2)Track 12 accurately ripped (confidence 1) [2B2D1E37] (AR v2)Track 13 accurately ripped (confidence 1) [A1F2CC87] (AR v2)Track 14 accurately ripped (confidence 1) [4EEDA7C2] (AR v2)Track 15 accurately ripped (confidence 1) [38EBEFE6] (AR v2)Track 16 accurately ripped (confidence 1) [8D920FE1] (AR v2)Track 17 accurately ripped (confidence 1) [C609F516] (AR v2)Track 18 accurately ripped (confidence 1) [05762E32] (AR v2)Track 19 accurately ripped (confidence 1) [6D5A274D] (AR v2)Track 20 accurately ripped (confidence 1) [9FE84AC5] (AR v2)
All tracks accurately ripped
End of status report
==== Log checksum 9B9768CA2CF1CEE15F10D396323708D3774C3BD0A2B62575F51ED53941013BE5 ====



Показать сообщения:    

Текущее время: 03-Дек 16:42

Часовой пояс: UTC + 3


Вы не можете начинать темы
Вы не можете отвечать на сообщения
Вы не можете редактировать свои сообщения
Вы не можете удалять свои сообщения
Вы не можете голосовать в опросах
Вы не можете прикреплять файлы к сообщениям
Вы не можете скачивать файлы