(Orchestral) RadioMusiken: Schreker, Toch, Kunneke, Butting, Braunfels, Spoliansky - Suiten & Ouverturen / Шрекер, Тох, Кюннеке, Буттинг, Браунфельс - Сюиты для радио (Staatsoperette Dresden, Ernst Theis) - 2015, FLAC (tracks+.cue) lossless


 

[Цитировать]

Suites & Overtures for the Radio: Schreker, Toch, Künneke, Butting, Braunfels, Spoliansky
Жанр: Orchestral
Страна-производитель диска: Germany
Год издания диска: 2015
Издатель (лейбл): CPO
Номер по каталогу: cpo 777 838–2
Дата записи: 2006-2011
Аудиокодек: FLAC
Тип рипа: tracks+.cue
Битрейт аудио: lossless
Продолжительность: 2CD: 68:05 + 64:30
Источник: скачано с
Наличие сканов в содержимом раздачи: да (booklet)
Треклист:
CD 1
Franz Schreker (1878-1934)
Kleine Suite für Kammerorchester, 1928
I.Praeludium (3:18)
II.Marcia (1:52)
III.Canon (3:24)
IV.Fughette (2:17)
V.Intermezzo (3:36)
VI.Capriccio (2:09)
Ernst Toch (1887-1964)
Bunte Suite op. 48 für Orchester, 1928
1.Marschtempo (2:20)
2.Intermezzo (4:19)
3.Adagio espressivo (6:48)
4.Marionetten-Tanz. Frisch (1:47)
5.Galante Passacaglia (3:53
6.Karusell. Wirbelnd (2:20)
Eduard Künneke (1885-1953)
Tänzerische Suite op. 26. Concerto grosso für eine Jazzband und großes Orchester, 1929
I.Ouvertüre. Foxtrott (6:58)
II.Blues. Andante (5:34)
III.Intermezzo. Vivace (4:17)
IV.Valse melancholique (6:13)
V.Finale. Foxtrott (6:50)
CD 2
Mischa Spoliansky (1898-1985)
Charleston Caprice für großes Orchester, 1930 (6:08)
Max Butting (1888-1976)
Sinfonietta mit Banjo op. 37, Rundfunkmusik, 1929
1.Largo (6:31)
2.Adagio (6:45)
3.Allegro vivace (4:31)
Heitere Suite op. 38, Für kleines Orchester, 1929
I.Ouvertüre (3:57)
II.Bläserserenade (3:21)
III.Virtuosentückchen (2:46)
IV.Tanz (3:28)
V.Finale (3:26)
Walter Braunfels (1882-1954)
Divertimento für Radio-Orchester, 1929
1.Mäßig bewegt (3:19)
2.Gemessen, doch immer bewegt (3:19)
3.Langsam (5:02)
4.Zeitmaß der Sarabande (3:42)
5.Sehr lebhaft (3:39)
Исполнители:
Orchester der Staatsoperette Dresden
Ernst Theis, conductor
rec. Börse Coswig 2006 & 2007/Lukaskirche Dresden 2009/
Alter Schlachthof Dresden 2010/Hochschule für Musik, Dresden 2011

Лог создания рипа

CD 1
Exact Audio Copy V1.1 from 23. June 2015
EAC extraction logfile from 6. October 2015, 8:33
Orchester der Staatsoperette Dresden, Ernst Theis / RadioMusiken Vol.2 CD1
Used drive : ATAPI iHBS112 2 Adapter: 1 ID: 0
Read mode : SecureUtilize accurate stream : YesDefeat audio cache : YesMake use of C2 pointers : No
Read offset correction : 6Overread into Lead-In and Lead-Out : NoFill up missing offset samples with silence : YesDelete leading and trailing silent blocks : NoNull samples used in CRC calculations : YesUsed interface : Native Win32 interface for Win NT & 2000Gap handling : Appended to previous track
Used output format : User Defined EncoderSelected bitrate : 1024 kBit/sQuality : HighAdd ID3 tag : NoCommand line compressor : C:\Program Files\Exact Audio Copy\Flac\flac.exeAdditional command line options : -8 -V -T "ARTIST=%artist%" -T "TITLE=%title%" -T "ALBUM=%albumtitle%" -T "DATE=%year%" -T "TRACKNUMBER=%tracknr%" -T "TOTALTRACKS=%numtracks%" -T "GENRE=%genre%" -T "ALBUMARTIST=%albumartist%" -T "ALBUM ARTIST=%albumartist%" -T "COMPOSER=%composer%" -T "PERFORMER=%albuminterpret%" -T "DISCNUMBER=%cdnumber%" -T "TOTALDISCS=%totalcds%" -T "COMMENT=EAC Secure Mode, Test & Copy, AccurateRip, FLAC -8" %source%
TOC of the extracted CD
Track | Start | Length | Start sector | End sector --------------------------------------------------------- 1 | 0:00.00 | 3:18.11 | 0 | 14860 2 | 3:18.11 | 1:52.26 | 14861 | 23286 3 | 5:10.37 | 3:24.41 | 23287 | 38627 4 | 8:35.03 | 2:17.12 | 38628 | 48914 5 | 10:52.15 | 3:36.48 | 48915 | 65162 6 | 14:28.63 | 2:09.55 | 65163 | 74892 7 | 16:38.43 | 2:20.26 | 74893 | 85418 8 | 18:58.69 | 4:19.37 | 85419 | 104880 9 | 23:18.31 | 6:48.44 | 104881 | 135524 10 | 30:07.00 | 1:47.66 | 135525 | 143615 11 | 31:54.66 | 3:53.10 | 143616 | 161100 12 | 35:48.01 | 2:20.27 | 161101 | 171627 13 | 38:08.28 | 6:58.09 | 171628 | 202986 14 | 45:06.37 | 5:34.38 | 202987 | 228074 15 | 50:41.00 | 4:17.38 | 228075 | 247387 16 | 54:58.38 | 6:13.60 | 247388 | 275422 17 | 61:12.23 | 6:50.57 | 275423 | 306229
Track 1
Filename P:\DL\Orchester der Staatsoperette Dresden, Ernst Theis - RadioMusiken Vol.2 CD1 (2014) [FLAC]\01 - Kleine Suite fur Kammerorchester - 1.Praeludium.wav
Pre-gap length 0:00:02.00
Peak level 97.3 % Extraction speed 5.3 X Track quality 100.0 % Test CRC C035FE4B Copy CRC C035FE4B Accurately ripped (confidence 1) [6A007777] (AR v2) Copy OK
Track 2
Filename P:\DL\Orchester der Staatsoperette Dresden, Ernst Theis - RadioMusiken Vol.2 CD1 (2014) [FLAC]\02 - Kleine Suite fur Kammerorchester - 2.Marcia.wav
Peak level 37.0 % Extraction speed 5.0 X Track quality 100.0 % Test CRC 8C12CB57 Copy CRC 8C12CB57 Accurately ripped (confidence 1) [58B136CA] (AR v2) Copy OK
Track 3
Filename P:\DL\Orchester der Staatsoperette Dresden, Ernst Theis - RadioMusiken Vol.2 CD1 (2014) [FLAC]\03 - Kleine Suite fur Kammerorchester - 3.Canon.wav
Peak level 29.8 % Extraction speed 5.8 X Track quality 100.0 % Test CRC 7E3B4282 Copy CRC 7E3B4282 Accurately ripped (confidence 1) [B3A02D8F] (AR v2) Copy OK
Track 4
Filename P:\DL\Orchester der Staatsoperette Dresden, Ernst Theis - RadioMusiken Vol.2 CD1 (2014) [FLAC]\04 - Kleine Suite fur Kammerorchester - 4.Fughette.wav
Peak level 97.7 % Extraction speed 5.8 X Track quality 100.0 % Test CRC 4A36EB1F Copy CRC 4A36EB1F Accurately ripped (confidence 1) [AFFAD4FF] (AR v2) Copy OK
Track 5
Filename P:\DL\Orchester der Staatsoperette Dresden, Ernst Theis - RadioMusiken Vol.2 CD1 (2014) [FLAC]\05 - Kleine Suite fur Kammerorchester - 5.Intermezzo.wav
Peak level 97.7 % Extraction speed 6.6 X Track quality 100.0 % Test CRC 14DE083B Copy CRC 14DE083B Accurately ripped (confidence 1) [4A0DCEAE] (AR v2) Copy OK
Track 6
Filename P:\DL\Orchester der Staatsoperette Dresden, Ernst Theis - RadioMusiken Vol.2 CD1 (2014) [FLAC]\06 - Kleine Suite fur Kammerorchester - 6.Capriccio.wav
Peak level 97.7 % Extraction speed 6.1 X Track quality 100.0 % Test CRC 19E9613C Copy CRC 19E9613C Accurately ripped (confidence 1) [688C297C] (AR v2) Copy OK
Track 7
Filename P:\DL\Orchester der Staatsoperette Dresden, Ernst Theis - RadioMusiken Vol.2 CD1 (2014) [FLAC]\07 - Bunte Suite fur Orchester - 1.Marschtempo.wav
Peak level 97.7 % Extraction speed 6.5 X Track quality 100.0 % Test CRC 53B379E8 Copy CRC 53B379E8 Accurately ripped (confidence 1) [C0B534CA] (AR v2) Copy OK
Track 8
Filename P:\DL\Orchester der Staatsoperette Dresden, Ernst Theis - RadioMusiken Vol.2 CD1 (2014) [FLAC]\08 - Bunte Suite fur Orchester - 2.Intermezzo.wav
Peak level 20.9 % Extraction speed 7.5 X Track quality 100.0 % Test CRC A5203B3A Copy CRC A5203B3A Accurately ripped (confidence 1) [AEE09C55] (AR v2) Copy OK
Track 9
Filename P:\DL\Orchester der Staatsoperette Dresden, Ernst Theis - RadioMusiken Vol.2 CD1 (2014) [FLAC]\09 - Bunte Suite fur Orchester - 3.Adagio espressivo.wav
Peak level 45.4 % Extraction speed 8.2 X Track quality 100.0 % Test CRC 5C69869C Copy CRC 5C69869C Accurately ripped (confidence 1) [44E3299A] (AR v2) Copy OK
Track 10
Filename P:\DL\Orchester der Staatsoperette Dresden, Ernst Theis - RadioMusiken Vol.2 CD1 (2014) [FLAC]\10 - Bunte Suite fur Orchester - 4.Marionetten-Tanz. Frisch.wav
Peak level 97.7 % Extraction speed 5.2 X Track quality 99.9 % Test CRC A0AE81CC Copy CRC A0AE81CC Accurately ripped (confidence 1) [78047749] (AR v2) Copy OK
Track 11
Filename P:\DL\Orchester der Staatsoperette Dresden, Ernst Theis - RadioMusiken Vol.2 CD1 (2014) [FLAC]\11 - Bunte Suite fur Orchester - 5.Galante Passacaglia.wav
Peak level 22.2 % Extraction speed 8.4 X Track quality 100.0 % Test CRC 73EFA7F2 Copy CRC 73EFA7F2 Accurately ripped (confidence 1) [07CB1449] (AR v2) Copy OK
Track 12
Filename P:\DL\Orchester der Staatsoperette Dresden, Ernst Theis - RadioMusiken Vol.2 CD1 (2014) [FLAC]\12 - Bunte Suite fur Orchester - 6.Karusell. Wirbelnd.wav
Peak level 97.0 % Extraction speed 7.7 X Track quality 100.0 % Test CRC A8A4FC90 Copy CRC A8A4FC90 Accurately ripped (confidence 1) [836B7E2E] (AR v2) Copy OK
Track 13
Filename P:\DL\Orchester der Staatsoperette Dresden, Ernst Theis - RadioMusiken Vol.2 CD1 (2014) [FLAC]\13 - Tanzerishe Suite fur Jazzband - 1.Ouverture. Foxtrott.wav
Peak level 94.1 % Extraction speed 9.3 X Track quality 100.0 % Test CRC 5D8DDE65 Copy CRC 5D8DDE65 Accurately ripped (confidence 1) [046BA3BF] (AR v2) Copy OK
Track 14
Filename P:\DL\Orchester der Staatsoperette Dresden, Ernst Theis - RadioMusiken Vol.2 CD1 (2014) [FLAC]\14 - Tanzerishe Suite fur Jazzband - 2.Blues. Andante.wav
Peak level 95.1 % Extraction speed 9.5 X Track quality 100.0 % Test CRC 0415767F Copy CRC 0415767F Accurately ripped (confidence 1) [50226630] (AR v2) Copy OK
Track 15
Filename P:\DL\Orchester der Staatsoperette Dresden, Ernst Theis - RadioMusiken Vol.2 CD1 (2014) [FLAC]\15 - Tanzerishe Suite fur Jazzband - 3.Intermezzo. Vivace.wav
Peak level 79.9 % Extraction speed 9.6 X Track quality 100.0 % Test CRC 8CEE66CC Copy CRC 8CEE66CC Accurately ripped (confidence 1) [3849EA52] (AR v2) Copy OK
Track 16
Filename P:\DL\Orchester der Staatsoperette Dresden, Ernst Theis - RadioMusiken Vol.2 CD1 (2014) [FLAC]\16 - Tanzerishe Suite fur Jazzband - 4.Valse melancholique.wav
Peak level 97.7 % Extraction speed 9.0 X Track quality 99.9 % Test CRC FB2ADEE2 Copy CRC FB2ADEE2 Accurately ripped (confidence 1) [D3313B96] (AR v2) Copy OK
Track 17
Filename P:\DL\Orchester der Staatsoperette Dresden, Ernst Theis - RadioMusiken Vol.2 CD1 (2014) [FLAC]\17 - Tanzerishe Suite fur Jazzband - 5.Finale. Foxtrott.wav
Peak level 97.7 % Extraction speed 10.7 X Track quality 100.0 % Test CRC B7FB5777 Copy CRC B7FB5777 Accurately ripped (confidence 1) [A84F7C8D] (AR v2) Copy OK
All tracks accurately ripped
No errors occurred
End of status report
---- CUETools DB Plugin V2.1.6
[CTDB TOCID: Rh.bsRVEMoWPkCDsL0984PqwNDc-] disk not present in databaseSubmit result:
==== Log checksum 71295EE6851533D79F5FF06DBE02DFE2E60E8B5C795DCF1EA90E0586C1EFE1EC ====
CD 2
Exact Audio Copy V1.1 from 23. June 2015
EAC extraction logfile from 6. October 2015, 9:35
Orchester der Staatsoperette Dresden, Ernst Theis / RadioMusiken Vol.2 CD2
Used drive : ATAPI iHBS112 2 Adapter: 1 ID: 0
Read mode : SecureUtilize accurate stream : YesDefeat audio cache : YesMake use of C2 pointers : No
Read offset correction : 6Overread into Lead-In and Lead-Out : NoFill up missing offset samples with silence : YesDelete leading and trailing silent blocks : NoNull samples used in CRC calculations : YesUsed interface : Native Win32 interface for Win NT & 2000Gap handling : Appended to previous track
Used output format : User Defined EncoderSelected bitrate : 1024 kBit/sQuality : HighAdd ID3 tag : NoCommand line compressor : C:\Program Files\Exact Audio Copy\Flac\flac.exeAdditional command line options : -8 -V -T "ARTIST=%artist%" -T "TITLE=%title%" -T "ALBUM=%albumtitle%" -T "DATE=%year%" -T "TRACKNUMBER=%tracknr%" -T "TOTALTRACKS=%numtracks%" -T "GENRE=%genre%" -T "ALBUMARTIST=%albumartist%" -T "ALBUM ARTIST=%albumartist%" -T "COMPOSER=%composer%" -T "PERFORMER=%albuminterpret%" -T "DISCNUMBER=%cdnumber%" -T "TOTALDISCS=%totalcds%" -T "COMMENT=EAC Secure Mode, Test & Copy, AccurateRip, FLAC -8" %source%
TOC of the extracted CD
Track | Start | Length | Start sector | End sector --------------------------------------------------------- 1 | 0:00.00 | 6:08.65 | 0 | 27664 2 | 6:08.65 | 6:31.13 | 27665 | 57002 3 | 12:40.03 | 6:45.65 | 57003 | 87442 4 | 19:25.68 | 4:31.08 | 87443 | 107775 5 | 23:57.01 | 3:57.38 | 107776 | 125588 6 | 27:54.39 | 3:21.59 | 125589 | 140722 7 | 31:16.23 | 2:46.71 | 140723 | 153243 8 | 34:03.19 | 3:28.30 | 153244 | 168873 9 | 37:31.49 | 3:26.18 | 168874 | 184341 10 | 40:57.67 | 3:19.42 | 184342 | 199308 11 | 44:17.34 | 3:19.49 | 199309 | 214282 12 | 47:37.08 | 5:02.00 | 214283 | 236932 13 | 52:39.08 | 3:42.48 | 236933 | 253630 14 | 56:21.56 | 3:39.67 | 253631 | 270122 15 | 60:01.48 | 4:27.04 | 270123 | 290151
Track 1
Filename P:\DL\Orchester der Staatsoperette Dresden, Ernst Theis - RadioMusiken Vol.2 CD2 (2014) [FLAC]\01 - Charleston Caprice fur grosses Orchester.wav
Pre-gap length 0:00:02.00
Peak level 82.5 % Extraction speed 5.3 X Track quality 99.9 % Test CRC B5429AD9 Copy CRC B5429AD9 Accurately ripped (confidence 1) [A88DFAAC] (AR v2) Copy OK
Track 2
Filename P:\DL\Orchester der Staatsoperette Dresden, Ernst Theis - RadioMusiken Vol.2 CD2 (2014) [FLAC]\02 - Sinfonietta mit Banjo - 1.Largo.wav
Peak level 83.1 % Extraction speed 6.8 X Track quality 100.0 % Test CRC C455E385 Copy CRC C455E385 Accurately ripped (confidence 1) [8997F295] (AR v2) Copy OK
Track 3
Filename P:\DL\Orchester der Staatsoperette Dresden, Ernst Theis - RadioMusiken Vol.2 CD2 (2014) [FLAC]\03 - Sinfonietta mit Banjo - 2.Adagio.wav
Peak level 56.3 % Extraction speed 7.4 X Track quality 100.0 % Test CRC 26FF6590 Copy CRC 26FF6590 Accurately ripped (confidence 1) [9F1FA6D8] (AR v2) Copy OK
Track 4
Filename P:\DL\Orchester der Staatsoperette Dresden, Ernst Theis - RadioMusiken Vol.2 CD2 (2014) [FLAC]\04 - Sinfonietta mit Banjo - 3.Allegro vivace.wav
Peak level 88.8 % Extraction speed 7.7 X Track quality 100.0 % Test CRC 3032E3CE Copy CRC 3032E3CE Accurately ripped (confidence 1) [85237991] (AR v2) Copy OK
Track 5
Filename P:\DL\Orchester der Staatsoperette Dresden, Ernst Theis - RadioMusiken Vol.2 CD2 (2014) [FLAC]\05 - Heitere Musik, op. 38 - Ouverture.wav
Peak level 97.7 % Extraction speed 7.9 X Track quality 100.0 % Test CRC D114DB88 Copy CRC D114DB88 Accurately ripped (confidence 1) [19BEEC7F] (AR v2) Copy OK
Track 6
Filename P:\DL\Orchester der Staatsoperette Dresden, Ernst Theis - RadioMusiken Vol.2 CD2 (2014) [FLAC]\06 - Heitere Musik, op. 38 - Blaserserenade.wav
Peak level 39.8 % Extraction speed 8.1 X Track quality 100.0 % Test CRC 67CBEAE4 Copy CRC 67CBEAE4 Accurately ripped (confidence 1) [F1DD30C6] (AR v2) Copy OK
Track 7
Filename P:\DL\Orchester der Staatsoperette Dresden, Ernst Theis - RadioMusiken Vol.2 CD2 (2014) [FLAC]\07 - Heitere Musik, op. 38 - Virtuosentuckchen.wav
Peak level 97.7 % Extraction speed 6.2 X Track quality 99.9 % Test CRC E4CA87E6 Copy CRC E4CA87E6 Accurately ripped (confidence 1) [002A97C5] (AR v2) Copy OK
Track 8
Filename P:\DL\Orchester der Staatsoperette Dresden, Ernst Theis - RadioMusiken Vol.2 CD2 (2014) [FLAC]\08 - Heitere Musik, op. 38 - Tanz.wav
Peak level 90.9 % Extraction speed 8.5 X Track quality 100.0 % Test CRC 9567DE64 Copy CRC 9567DE64 Accurately ripped (confidence 1) [36E3FF85] (AR v2) Copy OK
Track 9
Filename P:\DL\Orchester der Staatsoperette Dresden, Ernst Theis - RadioMusiken Vol.2 CD2 (2014) [FLAC]\09 - Heitere Musik, op. 38 - Finale.wav
Peak level 97.7 % Extraction speed 8.2 X Track quality 100.0 % Test CRC 01ACB3B8 Copy CRC 01ACB3B8 Accurately ripped (confidence 1) [E47B505A] (AR v2) Copy OK
Track 10
Filename P:\DL\Orchester der Staatsoperette Dresden, Ernst Theis - RadioMusiken Vol.2 CD2 (2014) [FLAC]\10 - Divertimento fur Radio-Orchester op.42 - 1.Massig bewegt.wav
Peak level 97.3 % Extraction speed 6.8 X Track quality 99.9 % Test CRC C5078AAD Copy CRC C5078AAD Accurately ripped (confidence 1) [A37689C0] (AR v2) Copy OK
Track 11
Filename P:\DL\Orchester der Staatsoperette Dresden, Ernst Theis - RadioMusiken Vol.2 CD2 (2014) [FLAC]\11 - Divertimento fur Radio-Orchester op.42 - 2.Gemessen, doch immer bewegt.wav
Peak level 97.7 % Extraction speed 9.0 X Track quality 100.0 % Test CRC B7BEDF0E Copy CRC B7BEDF0E Accurately ripped (confidence 1) [E97975DF] (AR v2) Copy OK
Track 12
Filename P:\DL\Orchester der Staatsoperette Dresden, Ernst Theis - RadioMusiken Vol.2 CD2 (2014) [FLAC]\12 - Divertimento fur Radio-Orchester op.42 - 3.Langsam.wav
Peak level 97.7 % Extraction speed 9.7 X Track quality 100.0 % Test CRC 7DD52A02 Copy CRC 7DD52A02 Accurately ripped (confidence 1) [574BA298] (AR v2) Copy OK
Track 13
Filename P:\DL\Orchester der Staatsoperette Dresden, Ernst Theis - RadioMusiken Vol.2 CD2 (2014) [FLAC]\13 - Divertimento fur Radio-Orchester op.42 - 4.Zeitmass der Sarabande.wav
Peak level 97.7 % Extraction speed 9.6 X Track quality 100.0 % Test CRC 3FC57326 Copy CRC 3FC57326 Accurately ripped (confidence 1) [EE2AE9C9] (AR v2) Copy OK
Track 14
Filename P:\DL\Orchester der Staatsoperette Dresden, Ernst Theis - RadioMusiken Vol.2 CD2 (2014) [FLAC]\14 - Divertimento fur Radio-Orchester op.42 - 5.Sehr lebhaft.wav
Peak level 97.7 % Extraction speed 9.7 X Track quality 100.0 % Test CRC 5B6655DF Copy CRC 5B6655DF Accurately ripped (confidence 1) [84DEA6F1] (AR v2) Copy OK
Track 15
Filename P:\DL\Orchester der Staatsoperette Dresden, Ernst Theis - RadioMusiken Vol.2 CD2 (2014) [FLAC]\15 - Charleston Caprice.wav
Peak level 81.8 % Extraction speed 10.3 X Track quality 100.0 % Test CRC 53A11872 Copy CRC 53A11872 Accurately ripped (confidence 1) [658C2ABE] (AR v2) Copy OK
All tracks accurately ripped
No errors occurred
End of status report
---- CUETools DB Plugin V2.1.6
[CTDB TOCID: dYY7LfoaPICmcG5o8MPQScZUPXA-] disk not present in databaseSubmit result:
==== Log checksum 36A7F3DC96BFF54D4A9AFF33D5DC84DF3A2C59110442AC1DD9E88ADF8AFEB05F ====

Содержание индексной карты (.CUE)

CD 1
REM GENRE ClassicalREM DATE 2014REM DISCID AE0FF311REM COMMENT "ExactAudioCopy v1.1"PERFORMER "Orchester der Staatsoperette Dresden, Ernst Theis"TITLE "RadioMusiken Vol.2 CD1"FILE "01 - Kleine Suite fur Kammerorchester - 1.Praeludium.wav" WAVE TRACK 01 AUDIO TITLE "Kleine Suite fьr Kammerorchester - 1.Praeludium" PERFORMER "Orchester der Staatsoperette Dresden, Ernst Theis" FLAGS DCP INDEX 01 00:00:00FILE "02 - Kleine Suite fur Kammerorchester - 2.Marcia.wav" WAVE TRACK 02 AUDIO TITLE "Kleine Suite fьr Kammerorchester - 2.Marcia" PERFORMER "Orchester der Staatsoperette Dresden, Ernst Theis" FLAGS DCP INDEX 01 00:00:00FILE "03 - Kleine Suite fur Kammerorchester - 3.Canon.wav" WAVE TRACK 03 AUDIO TITLE "Kleine Suite fьr Kammerorchester - 3.Canon" PERFORMER "Orchester der Staatsoperette Dresden, Ernst Theis" FLAGS DCP INDEX 01 00:00:00FILE "04 - Kleine Suite fur Kammerorchester - 4.Fughette.wav" WAVE TRACK 04 AUDIO TITLE "Kleine Suite fьr Kammerorchester - 4.Fughette" PERFORMER "Orchester der Staatsoperette Dresden, Ernst Theis" FLAGS DCP INDEX 01 00:00:00FILE "05 - Kleine Suite fur Kammerorchester - 5.Intermezzo.wav" WAVE TRACK 05 AUDIO TITLE "Kleine Suite fьr Kammerorchester - 5.Intermezzo" PERFORMER "Orchester der Staatsoperette Dresden, Ernst Theis" FLAGS DCP INDEX 01 00:00:00FILE "06 - Kleine Suite fur Kammerorchester - 6.Capriccio.wav" WAVE TRACK 06 AUDIO TITLE "Kleine Suite fьr Kammerorchester - 6.Capriccio" PERFORMER "Orchester der Staatsoperette Dresden, Ernst Theis" FLAGS DCP INDEX 01 00:00:00FILE "07 - Bunte Suite fur Orchester - 1.Marschtempo.wav" WAVE TRACK 07 AUDIO TITLE "Bunte Suite fьr Orchester - 1.Marschtempo" PERFORMER "Orchester der Staatsoperette Dresden, Ernst Theis" FLAGS DCP INDEX 01 00:00:00FILE "08 - Bunte Suite fur Orchester - 2.Intermezzo.wav" WAVE TRACK 08 AUDIO TITLE "Bunte Suite fьr Orchester - 2.Intermezzo" PERFORMER "Orchester der Staatsoperette Dresden, Ernst Theis" FLAGS DCP INDEX 01 00:00:00FILE "09 - Bunte Suite fur Orchester - 3.Adagio espressivo.wav" WAVE TRACK 09 AUDIO TITLE "Bunte Suite fьr Orchester - 3.Adagio espressivo" PERFORMER "Orchester der Staatsoperette Dresden, Ernst Theis" FLAGS DCP INDEX 01 00:00:00FILE "10 - Bunte Suite fur Orchester - 4.Marionetten-Tanz. Frisch.wav" WAVE TRACK 10 AUDIO TITLE "Bunte Suite fьr Orchester - 4.Marionetten-Tanz. Frisch " PERFORMER "Orchester der Staatsoperette Dresden, Ernst Theis" FLAGS DCP INDEX 01 00:00:00FILE "11 - Bunte Suite fur Orchester - 5.Galante Passacaglia.wav" WAVE TRACK 11 AUDIO TITLE "Bunte Suite fьr Orchester - 5.Galante Passacaglia" PERFORMER "Orchester der Staatsoperette Dresden, Ernst Theis" FLAGS DCP INDEX 01 00:00:00FILE "12 - Bunte Suite fur Orchester - 6.Karusell. Wirbelnd.wav" WAVE TRACK 12 AUDIO TITLE "Bunte Suite fьr Orchester - 6.Karusell. Wirbelnd" PERFORMER "Orchester der Staatsoperette Dresden, Ernst Theis" FLAGS DCP INDEX 01 00:00:00FILE "13 - Tanzerishe Suite fur Jazzband - 1.Ouverture. Foxtrott.wav" WAVE TRACK 13 AUDIO TITLE "Tдnzerishe Suite fьr Jazzband - 1.Ouvertьre. Foxtrott" PERFORMER "Orchester der Staatsoperette Dresden, Ernst Theis" FLAGS DCP INDEX 01 00:00:00FILE "14 - Tanzerishe Suite fur Jazzband - 2.Blues. Andante.wav" WAVE TRACK 14 AUDIO TITLE "Tдnzerishe Suite fьr Jazzband - 2.Blues. Andante" PERFORMER "Orchester der Staatsoperette Dresden, Ernst Theis" FLAGS DCP INDEX 01 00:00:00FILE "15 - Tanzerishe Suite fur Jazzband - 3.Intermezzo. Vivace.wav" WAVE TRACK 15 AUDIO TITLE "Tдnzerishe Suite fьr Jazzband - 3.Intermezzo. Vivace" PERFORMER "Orchester der Staatsoperette Dresden, Ernst Theis" FLAGS DCP INDEX 01 00:00:00FILE "16 - Tanzerishe Suite fur Jazzband - 4.Valse melancholique.wav" WAVE TRACK 16 AUDIO TITLE "Tдnzerishe Suite fьr Jazzband - 4.Valse melancholique" PERFORMER "Orchester der Staatsoperette Dresden, Ernst Theis" FLAGS DCP INDEX 01 00:00:00FILE "17 - Tanzerishe Suite fur Jazzband - 5.Finale. Foxtrott.wav" WAVE TRACK 17 AUDIO TITLE "Tдnzerishe Suite fьr Jazzband - 5.Finale. Foxtrott" PERFORMER "Orchester der Staatsoperette Dresden, Ernst Theis" FLAGS DCP INDEX 01 00:00:00
CD 2
REM GENRE ClassicalREM DATE 2014REM DISCID E80F1C0FREM COMMENT "ExactAudioCopy v1.1"PERFORMER "Orchester der Staatsoperette Dresden, Ernst Theis"TITLE "RadioMusiken Vol.2 CD2"FILE "01 - Charleston Caprice fur grosses Orchester.wav" WAVE TRACK 01 AUDIO TITLE "Charleston Caprice fьr groЯes Orchester" PERFORMER "Orchester der Staatsoperette Dresden, Ernst Theis" FLAGS DCP INDEX 01 00:00:00FILE "02 - Sinfonietta mit Banjo - 1.Largo.wav" WAVE TRACK 02 AUDIO TITLE "Sinfonietta mit Banjo - 1.Largo" PERFORMER "Orchester der Staatsoperette Dresden, Ernst Theis" FLAGS DCP INDEX 01 00:00:00FILE "03 - Sinfonietta mit Banjo - 2.Adagio.wav" WAVE TRACK 03 AUDIO TITLE "Sinfonietta mit Banjo - 2.Adagio" PERFORMER "Orchester der Staatsoperette Dresden, Ernst Theis" FLAGS DCP INDEX 01 00:00:00FILE "04 - Sinfonietta mit Banjo - 3.Allegro vivace.wav" WAVE TRACK 04 AUDIO TITLE "Sinfonietta mit Banjo - 3.Allegro vivace" PERFORMER "Orchester der Staatsoperette Dresden, Ernst Theis" FLAGS DCP INDEX 01 00:00:00FILE "05 - Heitere Musik, op. 38 - Ouverture.wav" WAVE TRACK 05 AUDIO TITLE "Heitere Musik, op. 38 - Ouvertьre" PERFORMER "Orchester der Staatsoperette Dresden, Ernst Theis" FLAGS DCP INDEX 01 00:00:00FILE "06 - Heitere Musik, op. 38 - Blaserserenade.wav" WAVE TRACK 06 AUDIO TITLE "Heitere Musik, op. 38 - Blдserserenade" PERFORMER "Orchester der Staatsoperette Dresden, Ernst Theis" FLAGS DCP INDEX 01 00:00:00FILE "07 - Heitere Musik, op. 38 - Virtuosentuckchen.wav" WAVE TRACK 07 AUDIO TITLE "Heitere Musik, op. 38 - Virtuosentьckchen" PERFORMER "Orchester der Staatsoperette Dresden, Ernst Theis" FLAGS DCP INDEX 01 00:00:00FILE "08 - Heitere Musik, op. 38 - Tanz.wav" WAVE TRACK 08 AUDIO TITLE "Heitere Musik, op. 38 - Tanz" PERFORMER "Orchester der Staatsoperette Dresden, Ernst Theis" FLAGS DCP INDEX 01 00:00:00FILE "09 - Heitere Musik, op. 38 - Finale.wav" WAVE TRACK 09 AUDIO TITLE "Heitere Musik, op. 38 - Finale" PERFORMER "Orchester der Staatsoperette Dresden, Ernst Theis" FLAGS DCP INDEX 01 00:00:00FILE "10 - Divertimento fur Radio-Orchester op.42 - 1.Massig bewegt.wav" WAVE TRACK 10 AUDIO TITLE "Divertimento fьr Radio-Orchester op.42 - 1.MдЯig bewegt" PERFORMER "Orchester der Staatsoperette Dresden, Ernst Theis" FLAGS DCP INDEX 01 00:00:00FILE "11 - Divertimento fur Radio-Orchester op.42 - 2.Gemessen, doch immer bewegt.wav" WAVE TRACK 11 AUDIO TITLE "Divertimento fьr Radio-Orchester op.42 - 2.Gemessen, doch immer bewegt" PERFORMER "Orchester der Staatsoperette Dresden, Ernst Theis" FLAGS DCP INDEX 01 00:00:00FILE "12 - Divertimento fur Radio-Orchester op.42 - 3.Langsam.wav" WAVE TRACK 12 AUDIO TITLE "Divertimento fьr Radio-Orchester op.42 - 3.Langsam" PERFORMER "Orchester der Staatsoperette Dresden, Ernst Theis" FLAGS DCP INDEX 01 00:00:00FILE "13 - Divertimento fur Radio-Orchester op.42 - 4.Zeitmass der Sarabande.wav" WAVE TRACK 13 AUDIO TITLE "Divertimento fьr Radio-Orchester op.42 - 4.ZeitmaЯ der Sarabande" PERFORMER "Orchester der Staatsoperette Dresden, Ernst Theis" FLAGS DCP INDEX 01 00:00:00FILE "14 - Divertimento fur Radio-Orchester op.42 - 5.Sehr lebhaft.wav" WAVE TRACK 14 AUDIO TITLE "Divertimento fьr Radio-Orchester op.42 - 5.Sehr lebhaft" PERFORMER "Orchester der Staatsoperette Dresden, Ernst Theis" FLAGS DCP INDEX 01 00:00:00FILE "15 - Charleston Caprice.wav" WAVE TRACK 15 AUDIO TITLE "Charleston Caprice" PERFORMER "Orchester der Staatsoperette Dresden, Ernst Theis" FLAGS DCP INDEX 01 00:00:00
Доп. информация: С 2006 по 2011 год оркестр Дрезденской государственной оперетты под рук. Эрнста Tайса записал серию работ, известных как RadioMusiken. Немецкое радиовещание было заинтересовано в ознакомлении жителей Веймарской республики с последними тенденциями в области классической музыки. Заказанные композиторам (маститым и молодым) сочинения должны были учитывать состав аудитории (в общей массе это были неподготовленные слушатели) и радио-формат, в котором основное внимание уделяется популярным жанрам. Несмотря на обозначенные рамки, этот проект породил оригинальные работы. Прежде всего к ним относится "Маленькая сюита для камерного оркестра" (1928) Франца Шрекера - ажурный сплав австрийского варианта импрессионизма и неоклассики; и "Пёстрая сюита" Эрнста Тоха (1887-1964), написанная в сознательно безвкусном и язвительном стиле, на стыке экспрессионизма и всё того же неоклассицизма, напоминающем, кстати, музыку юного Шостаковича 30х. Совсем не легковесно, а даже авангардно звучат джазово-ориентированные пьесы - "Чарльстон-каприз" (1930) "Берлинского Оффенбаха" Миши Сполянского (1898-1985) и "Танцевальная сюита" от автора популярных оперетт Эдуарда Кюннеке (1885-1953) с подзаголовком "Кончерто гроссо для джаз-бэнда и оркестра". Серьёзный композитор Макс Буттинг (1888-1976), не забыв о своих музыкальных корнях - Брукнере и Регере, сочинил "Симфониетту с банджо" (близкую к эстетике Хиндемита и Онеггера) и "Радостную сюиту" (Увертюра из которой снова навевает мысли о Шостаковиче - много, очень много взял наш композитор из немецкой музыки тех лет). Оркестровый "Дивертисмент" Вальтера Браунфельса (1882-1954) - звучит не хуже известного шедевра Ибера. Эта немецкая музыкальная весна, вызвавшая появление доступной, и при этом сложной и интересной музыки, продлилась всего четыре года. Уже в 1933 радио, как средство массовой информации, стало использоваться нацистами для более зловещих целей.



Показать сообщения:    

Текущее время: 05-Дек 15:33

Часовой пояс: UTC + 3


Вы не можете начинать темы
Вы не можете отвечать на сообщения
Вы не можете редактировать свои сообщения
Вы не можете удалять свои сообщения
Вы не можете голосовать в опросах
Вы не можете прикреплять файлы к сообщениям
Вы не можете скачивать файлы